<?xml version="1.0" standalone="no"?>
<!DOCTYPE svg PUBLIC "-//W3C//DTD SVG 1.1//EN" "http://www.w3.org/Graphics/SVG/1.1/DTD/svg11.dtd" >
<svg xmlns="http://www.w3.org/2000/svg">
<metadata></metadata>
<defs>
<font id="soho_gothic_probold" horiz-adv-x="1378" >
<font-face units-per-em="2048" ascent="1618" descent="-430" />
<missing-glyph horiz-adv-x="413" />
<glyph horiz-adv-x="2048" />
<glyph horiz-adv-x="2048" />
<glyph unicode="&#xd;" horiz-adv-x="2048" />
<glyph unicode=" "  horiz-adv-x="413" />
<glyph unicode="&#x09;" horiz-adv-x="413" />
<glyph unicode="&#xa0;" horiz-adv-x="413" />
<glyph unicode="!" horiz-adv-x="675" d="M139 1597h398l-35 -1140h-328zM154 0v338h366v-338h-366z" />
<glyph unicode="&#x22;" horiz-adv-x="987" d="M41 1040l80 537h313l-141 -537h-252zM553 1040l80 537h313l-143 -537h-250z" />
<glyph unicode="#" horiz-adv-x="1574" d="M129 365v223h199l34 323h-233v222h260l43 389h295l-43 -389h279l45 389h295l-43 -389h182v-222h-207l-37 -323h244v-223h-268l-41 -365h-295l41 365h-281l-39 -365h-297l43 365h-176zM623 588h280l35 323h-279z" />
<glyph unicode="$" d="M119 1135q0 183 105 282.5t315 126.5v219h301v-213q181 -9 364 -47v-246q-294 25 -473 25q-122 0 -179.5 -30t-57.5 -105q0 -60 35.5 -98t136.5 -80l217 -88q133 -56 210 -112.5t118.5 -140.5t41.5 -202q0 -195 -106 -307t-307 -142v-237h-301v229q-250 12 -381 45v250 q314 -24 479 -24q123 0 179 40t56 126q0 65 -36.5 105t-141.5 85l-221 94q-89 38 -148 74t-109 87.5t-73.5 121.5t-23.5 162z" />
<glyph unicode="%" horiz-adv-x="2361" d="M98 1040v74q0 440 402 440q211 0 306 -113.5t95 -326.5v-74q0 -213 -95 -327.5t-306 -114.5q-402 0 -402 442zM365 1040q0 -143 30 -194t105 -51t105 51t30 194v74q0 142 -30.5 194t-104.5 52t-104.5 -53t-30.5 -193v-74zM516 0l1018 1526h299l-1018 -1526h-299z M1458 420v78q0 215 100 326.5t302 111.5q403 0 403 -438v-78q0 -440 -403 -440q-202 0 -302 112t-100 328zM1724 420q0 -73 9.5 -122.5t28.5 -75.5t42 -36t56 -10t56.5 10t42.5 36t28.5 75.5t9.5 122.5v78q0 73 -9.5 122t-28.5 74.5t-42.5 35t-56.5 9.5q-45 0 -72.5 -17.5 t-45.5 -72t-18 -151.5v-78z" />
<glyph unicode="&#x26;" horiz-adv-x="1673" d="M100 383v14q0 94 35.5 168t96.5 127t161 107l-16 18q-104 101 -153.5 186.5t-49.5 188.5v10q0 182 135.5 267t399.5 85q253 0 508 -51v-237q-238 20 -484 20q-99 0 -147.5 -26t-48.5 -95v-6q0 -59 27 -101t104 -114l499 -481q45 98 45 274l-96 17v172h473v-172l-96 -17 q0 -279 -129 -467l203 -194v-76h-344l-88 82q-164 -113 -457 -113q-578 0 -578 414zM469 383q0 -91 68.5 -136.5t173.5 -45.5q158 0 241 59l-348 330q-71 -38 -103 -82t-32 -113v-12z" />
<glyph unicode="'" horiz-adv-x="475" d="M41 1040l80 537h313l-141 -537h-252z" />
<glyph unicode="(" horiz-adv-x="817" d="M113 547v14q0 156 27.5 305.5t74.5 271t97 215t106 169.5h325q-137 -215 -208.5 -447t-71.5 -514v-14q0 -282 71.5 -514t208.5 -445h-325q-56 76 -106 169.5t-97 214.5t-74.5 270.5t-27.5 304.5z" />
<glyph unicode=")" horiz-adv-x="817" d="M74 -412q136 212 207 444t71 515v14q0 282 -71 514.5t-207 446.5h323q57 -76 107 -169.5t96.5 -215t74 -271t27.5 -305.5v-14q0 -155 -27.5 -304.5t-74 -270.5t-96.5 -214.5t-107 -169.5h-323z" />
<glyph unicode="*" horiz-adv-x="1126" d="M111 1182l77 237l123 -39q75 -23 142 -59q-17 87 -17 145v127h252v-127q0 -70 -18 -147q69 38 143 61l125 39l78 -237l-125 -39q-66 -20 -152 -33q53 -43 105 -109l76 -100l-203 -147l-78 100q-33 44 -78 129q-30 -64 -76 -127l-77 -102l-203 147l78 103q31 46 100 108 q-79 9 -147 31z" />
<glyph unicode="+" horiz-adv-x="1386" d="M150 655v269h409v397h268v-397h408v-269h-408v-397h-268v397h-409z" />
<glyph unicode="," horiz-adv-x="714" d="M57 -193l193 531h373l-277 -531h-289z" />
<glyph unicode="-" horiz-adv-x="770" d="M117 479v248h534v-248h-534z" />
<glyph unicode="." horiz-adv-x="618" d="M129 0v336h358v-336h-358z" />
<glyph unicode="/" horiz-adv-x="1013" d="M39 0l571 1522h363l-570 -1522h-364z" />
<glyph unicode="0" horiz-adv-x="1445" d="M100 668v184q0 702 623 702t623 -702v-184q0 -703 -623 -703t-623 703zM485 668q0 -98 11 -170.5t30.5 -119.5t50 -75t65.5 -39.5t81 -11.5t81.5 11.5t65.5 39.5t49.5 75t30.5 119.5t11 170.5v184q0 98 -11 170.5t-30.5 119.5t-49.5 75t-65.5 39.5t-81.5 11.5t-81 -11.5 t-65.5 -39.5t-50 -75t-30.5 -119.5t-11 -170.5v-184z" />
<glyph unicode="1" horiz-adv-x="1241" d="M104 0v256l328 16v928l-328 -88v270l433 146h276v-1256l326 -16v-256h-1035z" />
<glyph unicode="2" horiz-adv-x="1333" d="M106 0v188q0 114 16 199t47 151.5t88.5 123.5t128.5 105t179 105q122 63 181.5 106t79.5 79t20 88q0 78 -59 108.5t-214 30.5q-236 0 -438 -22v229q101 30 239 46.5t263 16.5q311 0 454.5 -93.5t143.5 -295.5q0 -156 -93 -265.5t-329 -229.5q-150 -75 -217 -124.5 t-91 -101.5t-24 -143v-20h725v-281h-1100z" />
<glyph unicode="3" horiz-adv-x="1335" d="M121 33v233q270 -26 467 -26q72 0 118 7.5t81 28.5t50 59.5t15 100.5v35q0 37 -4.5 62t-18 49t-38 38t-65.5 22.5t-99 8.5h-414v250h416q70 0 115.5 12.5t68.5 38.5t31 56.5t8 76.5v21q0 105 -54.5 140.5t-211.5 35.5q-186 0 -461 -22v231q62 21 212.5 42t289.5 21 q304 0 455 -95.5t151 -323.5v-25q0 -107 -43.5 -194.5t-136.5 -137.5q180 -88 180 -321v-37q0 -244 -146.5 -349.5t-459.5 -105.5q-138 0 -285.5 21.5t-220.5 46.5z" />
<glyph unicode="4" horiz-adv-x="1454" d="M84 346v262l756 914h325v-914h203v-262h-203v-346h-383v346h-698zM387 608h414v510z" />
<glyph unicode="5" horiz-adv-x="1312" d="M94 25v237q8 -1 104 -10t171.5 -14t150.5 -5q172 0 238.5 45.5t66.5 167.5v41q0 78 -25 119t-88.5 59.5t-183.5 18.5h-417l69 838h983v-275h-676l-26 -303h145q230 0 363.5 -49t188 -145t54.5 -258v-41q0 -257 -157.5 -371.5t-456.5 -114.5q-270 0 -504 60z" />
<glyph unicode="6" horiz-adv-x="1409" d="M100 596v340q0 123 16 214t57.5 170t111 128.5t179.5 77.5t261 28q142 0 284 -18.5t224 -38.5v-240q-298 25 -463 25q-66 0 -114 -7.5t-80 -25t-52 -39.5t-30 -58t-13.5 -72t-3.5 -91v-51q127 31 271 31q103 0 182 -10.5t152.5 -39t121.5 -76t76.5 -125.5t28.5 -183v-64 q0 -113 -32.5 -201.5t-87 -145t-132.5 -93t-162 -51.5t-182 -15q-319 0 -466 148t-147 483zM477 535q0 -176 57.5 -243t180.5 -67q100 0 158.5 60.5t58.5 183.5v59q0 123 -51.5 165t-171.5 42q-123 0 -232 -24v-176z" />
<glyph unicode="7" horiz-adv-x="1302" d="M84 1247v275h1139v-303l-670 -1219h-406l699 1247h-762z" />
<glyph unicode="8" horiz-adv-x="1462" d="M104 436v15q0 118 41 197.5t127 135.5q-163 108 -163 324v18q0 105 32 182t85 123.5t134.5 74.5t167.5 38t197 10h10q112 0 198 -10t167.5 -38t134.5 -74.5t85 -123.5t32 -182v-18q0 -217 -162 -324q86 -56 127 -135.5t41 -197.5v-15q0 -89 -17.5 -159.5t-46.5 -119.5 t-76 -84.5t-96 -56t-117 -32.5t-129 -15.5t-141 -3.5h-10q-80 0 -141 3.5t-128.5 15.5t-116.5 32.5t-95.5 56t-75.5 84.5t-46.5 119.5t-17.5 159.5zM481 440q0 -56 11.5 -96.5t31 -65t51.5 -39t67 -19.5t83 -5h10q62 0 103.5 8.5t75.5 32t50.5 69t16.5 115.5v15 q0 116 -36 164.5t-128 48.5h-172q-93 0 -128.5 -48t-35.5 -165v-15zM483 1096q0 -96 35.5 -143.5t126.5 -47.5h172q90 0 125 47.5t35 143.5v18q0 107 -61 148t-181 41h-10q-120 0 -181 -41t-61 -148v-18z" />
<glyph unicode="9" horiz-adv-x="1409" d="M100 985v64q0 112 32.5 200t87.5 144.5t132.5 93.5t162 52t181.5 15q318 0 465.5 -145t147.5 -475v-344q0 -121 -16 -212.5t-58 -172t-112 -131.5t-180.5 -80t-260.5 -29q-140 0 -282.5 19t-225.5 39v239q309 -26 471 -26q64 0 111 7.5t78.5 25.5t50.5 40t29 58t13 71.5 t3 89.5v54q-124 -31 -271 -31q-102 0 -180.5 10.5t-152.5 39t-121.5 76t-76 125.5t-28.5 183zM475 991q0 -123 51.5 -165t171.5 -42q117 0 232 23v178q0 176 -56.5 242.5t-179.5 66.5q-101 0 -160 -60t-59 -183v-60z" />
<glyph unicode=":" horiz-adv-x="643" d="M141 0v338h359v-338h-359zM141 831v336h359v-336h-359z" />
<glyph unicode=";" horiz-adv-x="671" d="M12 -193l162 531h383l-258 -531h-287zM176 831v336h361v-336h-361z" />
<glyph unicode="&#x3c;" horiz-adv-x="1386" d="M211 791l571 542h392l-568 -542l568 -543h-392z" />
<glyph unicode="=" horiz-adv-x="1386" d="M193 375v268h999v-268h-999zM193 930v270h999v-270h-999z" />
<glyph unicode="&#x3e;" horiz-adv-x="1386" d="M211 248l567 543l-567 542h389l574 -542l-574 -543h-389z" />
<glyph unicode="?" horiz-adv-x="1107" d="M66 1323v233q183 64 444 64q244 0 364.5 -81.5t120.5 -258.5v-16q0 -104 -46 -190.5t-165 -199.5q-96 -93 -141.5 -154t-58.5 -103t-13 -105v-53h-311v53q0 143 28 228t130 194q96 103 129 159.5t33 112.5v13q0 69 -46.5 94.5t-152.5 25.5q-115 0 -315 -16zM238 0v336 h358v-336h-358z" />
<glyph unicode="@" horiz-adv-x="1806" d="M92 356q0 149 31 301q142 705 870 705q338 0 529.5 -156t191.5 -450q0 -120 -24.5 -218.5t-82 -183t-146.5 -141.5t-222 -89t-305 -32q-246 0 -358.5 76.5t-112.5 251.5q0 84 10 166q24 226 136.5 325t320.5 99q189 0 373 -45l-68 -648q283 73 283 441q0 227 -138 340.5 t-401 113.5q-280 0 -444.5 -146t-221.5 -439q-26 -133 -26 -271q0 -234 130 -342t419 -108q234 0 387 18v-123q-56 -10 -169.5 -21t-215.5 -11q-380 0 -563 146.5t-183 440.5zM725 418q0 -78 38 -108.5t130 -30.5q43 0 70 2l51 524q-41 6 -96 6q-42 0 -70 -9t-53.5 -34.5 t-40 -74.5t-21.5 -126q-8 -99 -8 -149z" />
<glyph unicode="A" horiz-adv-x="1531" d="M43 0l424 1522h594l428 -1522h-402l-108 383h-432l-111 -383h-393zM600 657h328l-111 404q-30 125 -47 233h-14q-21 -137 -47 -233z" />
<glyph unicode="B" horiz-adv-x="1456" d="M150 0v1522q284 18 493 18q142 0 247 -11t195.5 -39.5t147 -76.5t88 -123t31.5 -178v-18q0 -102 -44 -185.5t-134 -128.5q95 -43 140.5 -127.5t45.5 -183.5v-23q0 -82 -18 -147.5t-50 -113.5t-82 -84t-108 -58.5t-134 -36t-154.5 -19t-174.5 -5.5q-220 0 -489 18z M518 258q55 -2 152 -2q174 0 246.5 38.5t72.5 154.5v22q0 98 -56.5 144.5t-201.5 46.5h-213v-404zM518 897h211q149 0 202.5 44t53.5 140v17q0 44 -13.5 75t-36 49t-64 28t-85.5 13t-112 3q-97 0 -156 -2v-367z" />
<glyph unicode="C" horiz-adv-x="1261" d="M100 674v176q0 163 30 284t85 201t141 129t189.5 69.5t238.5 20.5q92 0 223 -14t189 -29v-272q-230 18 -375 18q-89 0 -148 -17t-103 -61.5t-63.5 -125t-19.5 -203.5v-176q0 -124 20 -205t64 -126.5t103 -63t149 -17.5q156 0 373 17v-273q-59 -14 -190 -27.5t-222 -13.5 q-112 0 -201.5 14.5t-168 47t-135.5 87t-98 132.5t-61 185t-20 243z" />
<glyph unicode="D" horiz-adv-x="1511" d="M150 0v1522q251 18 524 18q383 0 560 -168t177 -528v-158q0 -368 -174 -536t-563 -168q-271 0 -524 18zM522 268h156q132 0 207.5 37t112 128t36.5 253v158q0 162 -37 250.5t-111.5 122.5t-207.5 34h-156v-983z" />
<glyph unicode="E" horiz-adv-x="1286" d="M150 0v1522h1036v-279h-654v-332h611v-264h-611v-371h654v-276h-1036z" />
<glyph unicode="F" horiz-adv-x="1267" d="M150 0v1522h1038v-281h-656v-332h611v-264h-611v-645h-382z" />
<glyph unicode="G" horiz-adv-x="1443" d="M100 672v180q0 127 20.5 230.5t55.5 175.5t87.5 126t109 86t128 51.5t136.5 26t143 6.5q150 0 306 -18.5t227 -36.5v-260q-318 18 -461 18q-65 0 -111 -5.5t-91 -20.5t-74 -43t-52.5 -72.5t-34 -110t-10.5 -153.5v-180q0 -161 34.5 -251.5t99 -124.5t175.5 -34 q126 0 175 4v555h356v-807q-260 -49 -547 -49q-82 0 -151.5 8.5t-139.5 30.5t-125.5 56.5t-104.5 90t-81.5 128t-51 172t-18.5 221.5z" />
<glyph unicode="H" horiz-adv-x="1638" d="M150 0v1522h385v-590h571v590h383v-1522h-383v641h-571v-641h-385z" />
<glyph unicode="I" horiz-adv-x="681" d="M150 0v1522h382v-1522h-382z" />
<glyph unicode="J" horiz-adv-x="681" d="M-76 -188q102 -5 109 -5q74 0 95.5 27.5t21.5 104.5v1583h382v-1569q0 -209 -96.5 -301t-308.5 -92q-122 0 -203 18v234z" />
<glyph unicode="K" horiz-adv-x="1511" d="M156 0v1522h385v-705l520 705h442l-567 -752l561 -770h-463l-493 707v-707h-385z" />
<glyph unicode="L" horiz-adv-x="1185" d="M150 0v1522h385v-1235h595v-287h-980z" />
<glyph unicode="M" horiz-adv-x="1835" d="M150 0v1522h374l295 -541q41 -71 94 -186h5q73 148 96 188l297 539h375v-1522h-369v756q0 131 8 248h-4q-42 -95 -98 -195l-195 -356h-223l-191 356q-40 72 -98 195h-4q6 -132 6 -248v-756h-368z" />
<glyph unicode="N" horiz-adv-x="1589" d="M150 0v1522h391l444 -777q59 -105 109 -215h4q-6 108 -6 261v731h348v-1522h-398l-440 791q-60 107 -106 208h-4q6 -240 6 -245v-754h-348z" />
<glyph unicode="O" horiz-adv-x="1525" d="M100 682v156q0 716 662 716q663 0 663 -716v-156q0 -717 -663 -717q-662 0 -662 717zM477 684q0 -119 19 -202t57 -131t89 -68.5t120 -20.5q94 0 155 37t96.5 132t35.5 253v154q0 229 -71 324t-216 95q-94 0 -155 -38t-95.5 -132t-34.5 -249v-154z" />
<glyph unicode="P" horiz-adv-x="1415" d="M150 0v1522q252 18 487 18q90 0 164.5 -5.5t150 -19.5t133.5 -37.5t109.5 -62t85 -89.5t53 -122.5t19.5 -159.5v-20q0 -124 -37 -215.5t-97.5 -146t-151.5 -87.5t-183 -44t-209 -11q-97 0 -156 2v-522h-368zM518 809h146q169 0 243 45t74 170v20q-1 65 -20 106.5t-61 64 t-96.5 30.5t-139.5 8q-25 0 -75 -1t-71 -1v-442z" />
<glyph unicode="Q" horiz-adv-x="1525" d="M100 678v162q0 193 48.5 333.5t139 222.5t208 120t266.5 38q150 0 267.5 -38t208 -120t139 -222.5t48.5 -333.5v-162q0 -315 -128 -486.5t-361 -209.5v-72q0 -48 20.5 -61t96.5 -13h168v-209q-49 -13 -136.5 -24t-166.5 -11q-64 0 -113 8t-92.5 29t-71 55.5t-43.5 89 t-16 128.5v82q-231 40 -356.5 211t-125.5 483zM477 678q0 -117 19 -198.5t57 -128.5t89 -68t120 -21q143 0 215 94t72 322v164q0 117 -19 198.5t-57.5 128.5t-89.5 67.5t-121 20.5q-142 0 -213.5 -94t-71.5 -321v-164z" />
<glyph unicode="R" horiz-adv-x="1470" d="M150 0v1522q342 18 491 18q88 0 160.5 -5t147 -19t132 -37.5t109.5 -61t85.5 -88t53 -121.5t19.5 -159v-15q0 -162 -61 -262t-181 -158l340 -614h-387l-311 543h-230v-543h-368zM518 809h139q173 0 246.5 48.5t73.5 170.5v14q0 124 -73.5 167.5t-250.5 43.5 q-86 0 -135 -2v-442z" />
<glyph unicode="S" horiz-adv-x="1323" d="M94 1135q0 220 148.5 319.5t445.5 99.5q236 0 465 -51v-246q-294 25 -444 25q-123 0 -180.5 -30t-57.5 -105q0 -58 33.5 -90.5t138.5 -75.5l215 -88q197 -81 285 -185.5t88 -279.5q0 -232 -151 -347.5t-433 -115.5q-146 0 -291 14.5t-223 34.5v250q314 -24 471 -24 q128 0 186 39.5t58 126.5q0 64 -36 100t-144 82l-222 94q-87 37 -147.5 75t-109 91t-72 124t-23.5 163z" />
<glyph unicode="T" horiz-adv-x="1372" d="M53 1243v279h1266v-279h-440v-1243h-385v1243h-441z" />
<glyph unicode="U" horiz-adv-x="1562" d="M139 616v906h379v-895q0 -207 56 -290t208 -83q153 0 210 83.5t57 289.5v895h374v-906q0 -324 -165.5 -487.5t-475.5 -163.5q-311 0 -477 163.5t-166 487.5z" />
<glyph unicode="V" horiz-adv-x="1533" d="M57 1522h392l264 -1020q21 -92 53 -277h4q43 224 55 277l265 1020h387l-420 -1522h-582z" />
<glyph unicode="W" horiz-adv-x="2037" d="M76 1522h381l125 -832q14 -100 36 -291h9q7 33 27.5 128t31.5 143l137 565h396l137 -569q31 -131 59 -267h8q8 91 35 291l127 832h377l-254 -1522h-465l-178 723q-17 71 -43 209h-6q-26 -138 -43 -209l-176 -723h-467z" />
<glyph unicode="X" horiz-adv-x="1505" d="M49 0l494 776l-486 746h408l319 -471l301 471h355l-482 -758l498 -764h-409l-328 487l-316 -487h-354z" />
<glyph unicode="Y" horiz-adv-x="1445" d="M29 1522h391l205 -404q54 -114 96 -233h10q23 69 100 233l205 404h381l-508 -973v-549h-372v549z" />
<glyph unicode="Z" horiz-adv-x="1347" d="M104 0v291l678 946h-659v285h1102v-295l-676 -942h694v-285h-1139z" />
<glyph unicode="[" horiz-adv-x="894" d="M166 -414v1936h631v-267h-275v-1405h275v-264h-631z" />
<glyph unicode="\" horiz-adv-x="1046" d="M57 1522h359l571 -1522h-360z" />
<glyph unicode="]" horiz-adv-x="894" d="M96 -150h275v1405h-275v267h631v-1936h-631v264z" />
<glyph unicode="^" horiz-adv-x="1386" d="M117 877l321 649h508l322 -649h-336l-240 509l-239 -509h-336z" />
<glyph unicode="_" horiz-adv-x="1253" d="M18 -98h1215v-185h-1215v185z" />
<glyph unicode="`" horiz-adv-x="993" d="M92 1591h406l268 -299h-332z" />
<glyph unicode="a" horiz-adv-x="1247" d="M86 303v47q0 66 14.5 117.5t39.5 87.5t66 62.5t85 41.5t106.5 24t121 12t136.5 3h109v64q0 75 -16 109.5t-60 48.5t-139 14q-181 0 -377 -21v213q65 25 192 48.5t259 23.5q273 0 385 -99t112 -337v-762h-325v76q-66 -44 -162.5 -75.5t-204.5 -31.5q-167 0 -254.5 84.5 t-87.5 249.5zM426 315q0 -65 34.5 -91.5t98.5 -26.5q62 0 122.5 18t94.5 37v262h-119q-130 0 -180.5 -28.5t-50.5 -123.5v-47z" />
<glyph unicode="b" horiz-adv-x="1337" d="M139 2v1593h359v-438q101 43 237 43q260 0 383 -129t123 -403v-144q0 -295 -145 -425t-443 -130q-217 0 -514 33zM494 248q111 -6 163 -6q127 0 178.5 60t51.5 224v144q0 148 -43 203t-158 55q-123 0 -192 -35v-645z" />
<glyph unicode="c" horiz-adv-x="1091" d="M96 518v131q0 278 126.5 413.5t393.5 135.5q201 0 392 -45v-244q-265 17 -324 17q-62 0 -102.5 -11t-71.5 -41t-45 -85t-14 -140v-131q0 -85 14 -140t45 -85t72 -41.5t102 -11.5q74 0 324 16v-242q-191 -45 -392 -45q-265 0 -392.5 138t-127.5 411z" />
<glyph unicode="d" horiz-adv-x="1339" d="M96 506v143q0 151 36 258.5t107 170.5t166 91.5t222 28.5q96 0 215 -18v415h356v-1595h-330v59q-147 -90 -329 -90q-214 0 -328.5 133.5t-114.5 403.5zM453 506q0 -148 44 -207t156 -59q96 0 193 41v632q-107 17 -176 17q-59 0 -96 -10.5t-66 -40.5t-42 -86t-13 -144 v-143z" />
<glyph unicode="e" horiz-adv-x="1304" d="M96 547v63q0 302 141 445t422 143q128 0 226 -32t160 -86.5t101.5 -134.5t55 -167.5t15.5 -193.5v-97h-768v-16q0 -37 2 -62t8 -52t17.5 -44.5t31.5 -34t49 -25.5t69.5 -14.5t94.5 -5.5q114 0 438 23v-236q-200 -51 -454 -51q-326 0 -467.5 130.5t-141.5 447.5zM451 682 h415v16q0 55 -7.5 94t-28.5 76t-64.5 56.5t-108.5 19.5q-51 0 -89 -14t-60 -36t-35 -55t-17.5 -66t-4.5 -75v-16z" />
<glyph unicode="f" horiz-adv-x="935" d="M49 932v235h195v97q0 184 82 274t272 90q140 0 276 -35v-200q-25 1 -81 3.5t-82 2.5q-72 0 -91.5 -28.5t-19.5 -110.5v-93h272v-254h-272v-913h-356v913z" />
<glyph unicode="g" horiz-adv-x="1341" d="M100 535v118q0 284 148.5 414.5t474.5 130.5q214 0 479 -31v-1198q0 -81 -16 -143t-54.5 -113.5t-101.5 -85t-157.5 -51.5t-221.5 -18q-145 0 -288 17t-195 30v213q377 -17 455 -17q75 0 119.5 9t67.5 32t29.5 50.5t6.5 76.5v39q-104 -16 -187 -16q-276 0 -417.5 131 t-141.5 412zM455 535q0 -152 51.5 -213.5t179.5 -61.5q100 0 162 10v650q-57 10 -160 10q-133 0 -183 -64.5t-50 -212.5v-118z" />
<glyph unicode="h" d="M139 0v1595h357v-479q164 82 350 82q95 0 165.5 -22.5t114 -61t69.5 -98t36 -125.5t10 -152v-739h-356v735q0 113 -33.5 154t-120.5 41q-116 0 -235 -56v-874h-357z" />
<glyph unicode="i" horiz-adv-x="651" d="M141 1327v268h371v-268h-371zM147 0v1167h357v-1167h-357z" />
<glyph unicode="j" horiz-adv-x="651" d="M-74 -205q20 0 58 -1t57 -1q67 0 86.5 27t19.5 108v1239h357v-1239q0 -210 -85.5 -292t-291.5 -82q-135 0 -201 16v225zM141 1327v268h371v-268h-371z" />
<glyph unicode="k" horiz-adv-x="1277" d="M139 0v1595h357v-944l366 516h381l-405 -561l422 -606h-404l-360 541v-541h-357z" />
<glyph unicode="l" horiz-adv-x="649" d="M147 0v1595h357v-1595h-357z" />
<glyph unicode="m" horiz-adv-x="1970" d="M139 0v1167h336v-92q73 58 165 90.5t187 32.5q196 0 277 -127q185 127 369 127q94 0 161.5 -24t106 -61t61 -96.5t29 -116t6.5 -132.5v-768h-356v760q0 41 -1 61.5t-7.5 46t-19 37t-36 19.5t-59.5 8q-88 0 -197 -58q6 -37 6 -114v-760h-356v760q0 40 -1.5 61.5t-7 46.5 t-18 36.5t-34 19.5t-54.5 8q-82 0 -200 -60v-872h-357z" />
<glyph unicode="n" horiz-adv-x="1374" d="M139 0v1167h336v-94q201 125 383 125q74 0 132 -12.5t98 -33.5t68.5 -55.5t44.5 -69.5t25.5 -86t12 -96t2.5 -106v-739h-356v739q0 109 -28.5 150t-111.5 41q-90 0 -249 -66v-864h-357z" />
<glyph unicode="o" horiz-adv-x="1314" d="M96 518v129q0 551 559 551q564 0 564 -551v-129q0 -549 -564 -549q-559 0 -559 549zM451 518q0 -153 47.5 -215.5t156.5 -62.5q111 0 159 62.5t48 215.5v129q0 153 -48.5 216t-158.5 63q-109 0 -156.5 -63t-47.5 -216v-129z" />
<glyph unicode="p" horiz-adv-x="1339" d="M139 -416v1583h330v-73q153 104 346 104q208 0 318 -129.5t110 -425.5v-104q0 -156 -37 -267t-110 -176.5t-170 -95t-226 -29.5q-111 0 -204 19v-406h-357zM492 256q113 -18 176 -18q58 0 96 12t67.5 44t42.5 92t13 153v104q0 163 -43.5 223t-147.5 60q-93 0 -204 -49 v-621z" />
<glyph unicode="q" horiz-adv-x="1335" d="M96 526v99q0 167 37 279.5t115.5 176.5t185 90.5t260.5 26.5q208 0 502 -33v-1581h-354v430q-115 -45 -254 -45q-256 0 -374 131t-118 426zM451 526q0 -164 38 -224t144 -60t209 37v639q-74 8 -158 8q-54 0 -87.5 -5.5t-64 -23t-46.5 -50.5t-25.5 -88t-9.5 -136v-97z" />
<glyph unicode="r" horiz-adv-x="890" d="M139 0v1167h332v-96q140 127 385 127v-299q-203 0 -360 -53v-846h-357z" />
<glyph unicode="s" horiz-adv-x="1112" d="M86 866q0 94 32.5 159.5t97 103t149.5 53.5t202 16q122 0 238 -14t176 -33v-223q-232 20 -381 20q-40 0 -62.5 -1t-47 -5t-36 -12t-19 -21.5t-7.5 -34.5q0 -43 29 -63t131 -59l102 -37q195 -70 271.5 -152.5t76.5 -220.5q0 -188 -126.5 -279.5t-389.5 -91.5 q-113 0 -237 14.5t-181 30.5v217q14 -1 85 -6.5t157.5 -10.5t157.5 -5q105 0 147.5 24.5t42.5 79.5q0 50 -32.5 73t-151.5 67l-94 34q-171 66 -250.5 152t-79.5 225z" />
<glyph unicode="t" horiz-adv-x="925" d="M43 932v235h203v295h356v-295h262v-254h-262v-583q0 -75 15.5 -96t80.5 -21q106 0 164 8v-219q-128 -33 -260 -33q-188 0 -272 82.5t-84 274.5v587z" />
<glyph unicode="u" d="M137 428v739h357v-739q0 -109 27.5 -149.5t111.5 -40.5q90 0 250 65v864h356v-1167h-336v94q-214 -125 -409 -125q-92 0 -159 26t-104.5 66.5t-59.5 104t-28 123t-6 139.5z" />
<glyph unicode="v" horiz-adv-x="1269" d="M37 1167h366l162 -635q14 -58 37.5 -165t34.5 -150q49 230 70 315l159 635h367l-344 -1167h-508z" />
<glyph unicode="w" horiz-adv-x="1916" d="M57 1167h361l106 -577q32 -187 37 -279h8q48 200 72 279l129 407h377l129 -407q18 -55 44 -159l30 -120h8q6 130 35 281l106 575h361l-246 -1167h-440l-156 500q-41 135 -55 233h-9q-14 -104 -57 -233l-156 -500h-438z" />
<glyph unicode="x" horiz-adv-x="1259" d="M16 0l406 600l-377 567h395l209 -317l207 317h365l-394 -583l387 -584h-395l-221 334l-217 -334h-365z" />
<glyph unicode="y" horiz-adv-x="1304" d="M47 1167h383l172 -600q15 -52 38 -156t36 -153q37 194 67 311l156 598h363l-371 -1175q-51 -161 -110 -252t-149.5 -136.5t-228.5 -45.5q-199 0 -329 26v228q125 -5 221 -5q65 0 100 30.5t58 111.5l18 63z" />
<glyph unicode="z" horiz-adv-x="1122" d="M82 0v262l551 649h-533v256h932v-266l-547 -649h549v-252h-952z" />
<glyph unicode="{" horiz-adv-x="946" d="M92 457v194q71 41 97 82.5t26 132.5v273q0 115 22.5 186t81 116.5t152.5 63t246 17.5h129v-267h-125q-99 0 -124.5 -19.5t-25.5 -96.5v-273q0 -125 -36 -192t-127 -121q91 -56 127 -122.5t36 -190.5v-273q0 -78 26 -98.5t124 -20.5h127v-264h-131q-151 0 -245.5 18 t-153 63.5t-81 116.5t-22.5 185v273q0 63 -13.5 102.5t-37 62.5t-72.5 52z" />
<glyph unicode="|" horiz-adv-x="688" d="M166 -416v1938h354v-1938h-354z" />
<glyph unicode="}" horiz-adv-x="946" d="M100 -152h125q99 0 124.5 20.5t25.5 98.5v273q0 124 36.5 190.5t127.5 122.5q-90 54 -127 121.5t-37 191.5v273q0 77 -25 96.5t-125 19.5h-125v267h129q153 0 247 -17.5t153 -63t81.5 -116.5t22.5 -186v-273q0 -63 13.5 -102t37 -62t70.5 -51v-194q-70 -43 -95.5 -84.5 t-25.5 -132.5v-273q0 -91 -14.5 -153.5t-48 -108.5t-93 -71.5t-143 -37.5t-205.5 -12h-129v264z" />
<glyph unicode="~" horiz-adv-x="1386" d="M150 670v65q0 344 288 344q108 0 230 -73l123 -74q74 -41 127 -41q44 0 57.5 25.5t13.5 82.5v66h244v-66q0 -176 -64.5 -259t-205.5 -83q-77 0 -134.5 14.5t-121.5 51.5l-125 76q-61 37 -87 42q-12 3 -26 3q-43 0 -58.5 -25.5t-15.5 -83.5v-65h-245z" />
<glyph unicode="&#xa1;" horiz-adv-x="675" d="M139 -422l35 1141h328l35 -1141h-398zM154 838v338h366v-338h-366z" />
<glyph unicode="&#xa2;" horiz-adv-x="1110" d="M100 518v131q0 458 365 533v231h295v-223q134 -9 250 -37v-242q-175 15 -322 15q-84 0 -132 -21t-74.5 -82.5t-26.5 -173.5v-131q0 -85 13.5 -140t44.5 -85t71.5 -41.5t103.5 -11.5q100 0 322 14v-240q-98 -29 -250 -39v-223h-295v234q-365 72 -365 532z" />
<glyph unicode="&#xa3;" horiz-adv-x="1349" d="M106 659v248h154v111q0 285 122.5 411.5t414.5 126.5q253 0 444 -43v-256q-306 17 -385 17q-51 0 -86 -4.5t-60.5 -17t-40 -29.5t-23 -48t-11 -66t-2.5 -89v-113h426v-248h-426v-206q0 -99 -53 -181h661v-272h-1075v223q94 91 94 230v206h-154z" />
<glyph unicode="&#xa4;" horiz-adv-x="1361" d="M119 1159l157 150l166 -160q108 63 242 63q137 0 238 -63l163 156l156 -152l-162 -158q68 -114 68 -231q0 -125 -68 -234l162 -155l-158 -154l-163 158q-112 -64 -236 -64q-131 0 -240 66l-168 -162l-155 152l166 161q-66 107 -66 234q0 126 66 229zM432 766 q0 -103 75.5 -174.5t176.5 -71.5q100 0 175 72.5t75 173.5q0 100 -74.5 172t-175.5 72q-103 0 -177.5 -71.5t-74.5 -172.5z" />
<glyph unicode="&#xa5;" horiz-adv-x="1531" d="M63 1522h396l207 -404q54 -114 96 -233h8q30 85 100 233l205 404h387l-272 -514h244v-205h-351l-102 -180h453v-203h-486v-420h-370v420h-486v203h451l-101 180h-350v205h244z" />
<glyph unicode="&#xa6;" horiz-adv-x="688" d="M166 383h354v-799h-354v799zM166 723v797h354v-797h-354z" />
<glyph unicode="&#xa7;" horiz-adv-x="1406" d="M133 698q0 132 66 232q-64 91 -64 229q0 198 145 294.5t441 96.5q139 0 279 -17t217 -34v-246q-341 25 -476 25q-128 0 -180.5 -31.5t-52.5 -105.5q0 -65 34.5 -105.5t135.5 -79.5l229 -88q206 -74 286.5 -172.5t80.5 -249.5q0 -125 -70 -229q68 -92 68 -219 q0 -221 -149 -332.5t-437 -111.5q-264 0 -514 47v252q329 -23 479 -23q133 0 184.5 40.5t51.5 125.5q0 38 -7 62t-29 49.5t-64.5 48.5t-112.5 51l-232 90q-158 58 -233.5 153t-75.5 248zM408 748q0 -45 3 -70.5t11.5 -50t29 -40t51 -31.5t81.5 -34l233 -88q71 -23 160 -82 v54q0 50 -5 77.5t-23.5 56t-55 49t-100.5 44.5l-230 86q-62 24 -95.5 45.5t-59.5 52.5v-69z" />
<glyph unicode="&#xa8;" horiz-adv-x="1040" d="M117 1321v260h286v-260h-286zM639 1321v260h285v-260h-285z" />
<glyph unicode="&#xa9;" horiz-adv-x="1759" d="M113 766q0 185 57 333.5t159 246t242 149t306 51.5t305 -51.5t240 -148.5t157.5 -245.5t56.5 -334.5t-56.5 -334.5t-157.5 -245.5t-240 -148.5t-305 -51.5t-305.5 51.5t-242 148.5t-159.5 245.5t-57 334.5zM299 766q0 -289 158.5 -452.5t419.5 -163.5q260 0 418.5 164 t158.5 452t-158.5 451t-418.5 163q-261 0 -419.5 -163t-158.5 -451zM500 713v106q0 189 99 289t298 100q62 0 133 -8t103 -18v-172q-129 12 -211 12q-100 0 -138.5 -44.5t-38.5 -158.5v-106q0 -113 39 -158t138 -45q104 0 211 10v-170q-32 -10 -103 -18t-133 -8 q-199 0 -298 100.5t-99 288.5z" />
<glyph unicode="&#xaa;" horiz-adv-x="937" d="M96 1038v27q0 50 13 87t40 60.5t57.5 38t78 22t89 9.5t101.5 2h66v35q0 64 -24 83t-111 19q-84 0 -252 -14v145q129 47 307 47q180 0 257 -63t77 -217v-475h-232v51q-42 -29 -106.5 -49.5t-134.5 -20.5q-106 0 -166 55t-60 158zM334 1049q0 -38 21.5 -50t62.5 -12 q37 0 75 10.5t58 22.5v141h-74q-82 0 -112.5 -15.5t-30.5 -70.5v-26z" />
<glyph unicode="&#xab;" horiz-adv-x="1583" d="M94 598l316 453h368l-307 -453l307 -455h-368zM803 598l315 453h369l-307 -453l307 -455h-369z" />
<glyph unicode="&#xac;" horiz-adv-x="1386" d="M193 930v270h999v-825h-279v555h-720z" />
<glyph unicode="&#xad;" horiz-adv-x="770" d="M117 479v248h534v-248h-534z" />
<glyph unicode="&#xae;" horiz-adv-x="1368" d="M113 971q0 274 155 437t414 163q256 0 411.5 -163t155.5 -437q0 -273 -155.5 -435.5t-411.5 -162.5q-259 0 -414 162.5t-155 435.5zM266 971q0 -215 111 -338t305 -123q191 0 301.5 123t110.5 338q0 213 -110.5 336t-301.5 123q-194 0 -305 -122.5t-111 -336.5zM442 674 v620q86 6 201 6q52 0 92.5 -4.5t78.5 -17.5t62.5 -35t39 -58t14.5 -85v-8q0 -129 -111 -170l154 -248h-180l-131 219h-60v-219h-160zM602 1008h49q65 0 92 18t27 68v6q0 47 -27.5 62.5t-93.5 15.5h-47v-170z" />
<glyph unicode="&#xaf;" horiz-adv-x="1325" d="M18 1673v182h1287v-182h-1287z" />
<glyph unicode="&#xb0;" horiz-adv-x="884" d="M92 1219q0 140 102 238.5t248 98.5t248.5 -98.5t102.5 -238.5t-102.5 -238t-248.5 -98t-248 98t-102 238zM274 1219q0 -69 48.5 -115.5t117.5 -46.5q71 0 120.5 46.5t49.5 115.5q0 71 -49 117t-121 46q-70 0 -118 -46t-48 -117z" />
<glyph unicode="&#xb1;" horiz-adv-x="1386" d="M156 758v268h403v379h270v-379h400v-268h-400v-381h-270v381h-403zM160 0v219h1065v-219h-1065z" />
<glyph unicode="&#xb2;" horiz-adv-x="929" d="M102 692v113q0 114 30 189t89 125t168 104q82 40 117.5 63t46 41t10.5 49q0 42 -33 59t-120 17q-136 0 -293 -14v153q56 15 155 26t183 11q195 0 284.5 -58.5t89.5 -185.5q0 -96 -59 -160t-209 -132q-131 -59 -166 -95.5t-35 -109.5v-8h451v-187h-709z" />
<glyph unicode="&#xb3;" horiz-adv-x="921" d="M106 713v151q135 -12 297 -12q87 0 121.5 21.5t34.5 87.5v18q0 51 -27 73.5t-110 22.5h-258v166h260q81 0 108 25t27 75v13q0 56 -32.5 76t-123.5 20q-47 0 -100 -2.5t-114 -6.5t-83 -5v151q42 15 139.5 28t188.5 13q193 0 290 -57.5t97 -196.5v-12q0 -64 -27 -118 t-85 -83q112 -52 112 -194v-19q0 -147 -93 -211.5t-294 -64.5q-92 0 -191 13t-137 28z" />
<glyph unicode="&#xb4;" horiz-adv-x="993" d="M211 1292l270 299h406l-342 -299h-334z" />
<glyph unicode="&#xb5;" horiz-adv-x="1456" d="M168 -414v1581h356v-739q0 -109 28 -149.5t112 -40.5q89 0 249 65v864h357v-1167h-336v94q-168 -90 -301 -104q-60 -3 -109 6v-410h-356z" />
<glyph unicode="&#xb6;" horiz-adv-x="1542" d="M111 1001v21q0 119 33 208t89 144.5t141 89t177 46t209 12.5h655v-1923h-217v1708h-131l2 -1708h-219v901h-100q-113 0 -204 13t-174.5 47.5t-139 90t-88.5 144t-33 206.5z" />
<glyph unicode="&#xb7;" horiz-adv-x="620" d="M141 586v338h338v-338h-338z" />
<glyph unicode="&#xb8;" horiz-adv-x="929" d="M117 -416l215 287h379l-269 -287h-325z" />
<glyph unicode="&#xb9;" horiz-adv-x="833" d="M125 1325v197l242 90h190v-738l166 -8v-174h-596v174l164 8v504z" />
<glyph unicode="&#xba;" horiz-adv-x="948" d="M96 1180v65q0 354 377 354q184 0 280.5 -85t96.5 -269v-65q0 -355 -377 -355t-377 355zM346 1180q0 -92 29 -129t98 -37t98 37t29 129v65q0 93 -29 129.5t-98 36.5q-68 0 -97.5 -36.5t-29.5 -129.5v-65z" />
<glyph unicode="&#xbb;" horiz-adv-x="1583" d="M96 143l307 455l-307 453h367l317 -453l-317 -455h-367zM807 143l303 455l-303 453h367l315 -453l-315 -455h-367z" />
<glyph unicode="&#xbc;" horiz-adv-x="2052" d="M125 1251v197l242 90h190v-737l166 -8v-175h-596v175l164 8v504zM408 0l1017 1526h301l-1015 -1526h-303zM1135 201v168l483 546h215v-542h123v-172h-123v-201h-262v201h-436zM1341 373h244v278z" />
<glyph unicode="&#xbd;" horiz-adv-x="2238" d="M125 1251v197l242 90h190v-737l166 -8v-175h-596v175l164 8v504zM408 0l1017 1526h301l-1015 -1526h-303zM1427 0v113q0 114 30 188.5t88.5 124.5t168.5 104q82 40 117.5 63.5t46 41.5t10.5 49q0 42 -33 59t-120 17q-124 0 -293 -15v154q56 15 155 26t183 11 q195 0 284.5 -58.5t89.5 -185.5q0 -96 -59 -160.5t-209 -132.5q-131 -59 -165.5 -95t-34.5 -109v-9h450v-186h-709z" />
<glyph unicode="&#xbe;" horiz-adv-x="2172" d="M106 639v152q146 -13 297 -13q87 0 121.5 21.5t34.5 87.5q0 64 -26 89t-111 25h-258v166h260q82 0 108.5 26.5t26.5 86.5q0 56 -32.5 76t-123.5 20q-47 0 -100 -2.5t-114 -6.5t-83 -5v151q42 15 139.5 28t188.5 13q194 0 290.5 -59.5t96.5 -206.5q0 -64 -27 -118t-85 -83 q112 -52 112 -194q0 -160 -92.5 -227.5t-294.5 -67.5q-92 0 -191 13t-137 28zM477 0l1018 1526h303l-1020 -1526h-301zM1247 201v168l484 546h215v-542h122v-172h-122v-201h-263v201h-436zM1454 373h244v278z" />
<glyph unicode="&#xbf;" horiz-adv-x="1107" d="M113 -86q0 104 46.5 191.5t164.5 199.5q96 93 142 154t59.5 103.5t13.5 105.5v53h309v-53q0 -97 -8.5 -154.5t-43 -125t-104.5 -142.5q-96 -105 -129 -161.5t-33 -113.5v-12q0 -68 45.5 -93.5t151.5 -25.5q103 0 315 17v-236q-177 -63 -444 -63q-243 0 -364 82.5 t-121 259.5v14zM512 844v336h358v-336h-358z" />
<glyph unicode="&#xc0;" horiz-adv-x="1531" d="M43 0l424 1522h594l428 -1522h-402l-108 383h-432l-111 -383h-393zM328 1915h405l268 -299h-331zM600 657h328l-111 404q-30 125 -47 233h-14q-21 -137 -47 -233z" />
<glyph unicode="&#xc1;" horiz-adv-x="1531" d="M43 0l424 1522h594l428 -1522h-402l-108 383h-432l-111 -383h-393zM555 1616l270 299h404l-340 -299h-334zM600 657h328l-111 404q-30 125 -47 233h-14q-21 -137 -47 -233z" />
<glyph unicode="&#xc2;" horiz-adv-x="1531" d="M43 0l424 1522h594l428 -1522h-402l-108 383h-432l-111 -383h-393zM274 1616l277 299h426l276 -299h-313l-176 168l-178 -168h-312zM600 657h328l-111 404q-30 125 -47 233h-14q-21 -137 -47 -233z" />
<glyph unicode="&#xc3;" horiz-adv-x="1531" d="M43 0l424 1522h594l428 -1522h-402l-108 383h-432l-111 -383h-393zM299 1618v49q0 148 68 216.5t184 68.5q51 0 95.5 -13t105.5 -47l98 -53q77 -43 117 -43q37 0 50 22t13 74v50h199v-50q0 -148 -65 -216t-177 -68q-101 0 -215 61l-96 53q-72 43 -111 43 q-36 0 -49.5 -23.5t-13.5 -74.5v-49h-203zM600 657h328l-111 404q-30 125 -47 233h-14q-21 -137 -47 -233z" />
<glyph unicode="&#xc4;" horiz-adv-x="1531" d="M43 0l424 1522h594l428 -1522h-402l-108 383h-432l-111 -383h-393zM358 1638v260h289v-260h-289zM600 657h328l-111 404q-26 96 -47 233h-14q-21 -137 -47 -233zM881 1638v260h286v-260h-286z" />
<glyph unicode="&#xc5;" horiz-adv-x="1531" d="M43 0l424 1522h594l428 -1522h-402l-108 383h-432l-111 -383h-393zM473 1835q0 118 82.5 184t212.5 66q128 0 208.5 -66t80.5 -184q0 -119 -80 -184.5t-209 -65.5q-131 0 -213 65.5t-82 184.5zM600 657h328l-111 404q-30 125 -47 233h-14q-21 -137 -47 -233zM653 1835 q0 -49 31 -73.5t84 -24.5q52 0 82.5 24.5t30.5 73.5q0 98 -113 98q-53 0 -84 -24t-31 -74z" />
<glyph unicode="&#xc6;" horiz-adv-x="2111" d="M82 0l412 1522h1521v-279h-653v-332h610v-264h-610v-371h653v-276h-1036v383h-399l-109 -383h-389zM633 655h346v635h-184q-9 -36 -26 -111.5t-26 -111.5z" />
<glyph unicode="&#xc7;" horiz-adv-x="1261" d="M100 674v176q0 163 30 284t85 201t141 129t189.5 69.5t238.5 20.5q92 0 223 -14t189 -29v-272q-230 18 -375 18q-89 0 -148 -17t-103 -61.5t-63.5 -125t-19.5 -203.5v-176q0 -124 20 -205t64 -126.5t103 -63t149 -17.5q156 0 373 17v-273q-59 -14 -190 -27.5t-222 -13.5 q-112 0 -201.5 14.5t-168 47t-135.5 87t-98 132.5t-61 185t-20 243zM342 -416l215 287h381l-270 -287h-326z" />
<glyph unicode="&#xc8;" horiz-adv-x="1286" d="M150 0v1522h1036v-279h-654v-332h611v-264h-611v-371h654v-276h-1036zM211 1915h405l269 -299h-332z" />
<glyph unicode="&#xc9;" horiz-adv-x="1286" d="M150 0v1522h1036v-279h-654v-332h611v-264h-611v-371h654v-276h-1036zM473 1616l270 299h404l-340 -299h-334z" />
<glyph unicode="&#xca;" horiz-adv-x="1286" d="M150 0v1522h1036v-279h-654v-332h611v-264h-611v-371h654v-276h-1036zM182 1616l277 299h426l274 -299h-311l-178 168l-176 -168h-312z" />
<glyph unicode="&#xcb;" horiz-adv-x="1286" d="M150 0v1522h1036v-279h-654v-332h611v-264h-611v-371h654v-276h-1036zM266 1638v260h289v-260h-289zM788 1638v260h287v-260h-287z" />
<glyph unicode="&#xcc;" horiz-adv-x="681" d="M-76 1915h404l270 -299h-334zM150 0v1522h382v-1522h-382z" />
<glyph unicode="&#xcd;" horiz-adv-x="681" d="M131 1614l268 299h406l-342 -299h-332zM150 0v1522h382v-1522h-382z" />
<glyph unicode="&#xce;" horiz-adv-x="681" d="M-145 1616l276 299h426l277 -299h-314l-176 168l-178 -168h-311zM150 0v1522h382v-1522h-382z" />
<glyph unicode="&#xcf;" horiz-adv-x="681" d="M-63 1638v260h286v-260h-286zM150 0v1522h382v-1522h-382zM459 1638v260h284v-260h-284z" />
<glyph unicode="&#xd0;" horiz-adv-x="1511" d="M47 651v258h103v613q226 18 524 18q383 0 560 -168t177 -528v-158q0 -368 -174 -536t-563 -168q-298 0 -524 18v651h-103zM522 268h156q132 0 207.5 37t112 128t36.5 253v158q0 162 -37 250.5t-111.5 122.5t-207.5 34h-156v-342h226v-258h-226v-383z" />
<glyph unicode="&#xd1;" horiz-adv-x="1589" d="M150 0v1522h391l444 -777q59 -105 109 -215h4q-6 108 -6 261v731h348v-1522h-398l-440 791q-60 107 -106 208h-4q6 -240 6 -245v-754h-348zM330 1614v51q0 147 68.5 216t183.5 69q51 0 93.5 -13t108.5 -47l97 -53q77 -43 116 -43q37 0 50.5 22t13.5 74v49h201v-49 q0 -148 -65.5 -216t-178.5 -68q-98 0 -215 61l-96 53q-68 41 -111 41q-35 0 -49.5 -23.5t-14.5 -72.5v-51h-202z" />
<glyph unicode="&#xd2;" horiz-adv-x="1525" d="M100 682v156q0 716 662 716q663 0 663 -716v-156q0 -717 -663 -717q-662 0 -662 717zM330 1915h403l271 -299h-334zM477 684q0 -119 19 -202t57 -131t89 -68.5t120 -20.5q94 0 155 37t96.5 132t35.5 253v154q0 229 -71 324t-216 95q-94 0 -155 -38t-95.5 -132t-34.5 -249 v-154z" />
<glyph unicode="&#xd3;" horiz-adv-x="1525" d="M100 682v156q0 716 662 716q663 0 663 -716v-156q0 -717 -663 -717q-662 0 -662 717zM477 684q0 -119 19 -202t57 -131t89 -68.5t120 -20.5q94 0 155 37t96.5 132t35.5 253v154q0 229 -71 324t-216 95q-94 0 -155 -38t-95.5 -132t-34.5 -249v-154zM526 1616l271 299h403 l-340 -299h-334z" />
<glyph unicode="&#xd4;" horiz-adv-x="1525" d="M100 682v156q0 716 662 716q663 0 663 -716v-156q0 -717 -663 -717q-662 0 -662 717zM272 1614l277 299h428l274 -299h-311l-178 168l-176 -168h-314zM477 684q0 -119 19 -202t57 -131t89 -68.5t120 -20.5q94 0 155 37t96.5 132t35.5 253v154q0 229 -71 324t-216 95 q-94 0 -155 -38t-95.5 -132t-34.5 -249v-154z" />
<glyph unicode="&#xd5;" horiz-adv-x="1525" d="M100 682v156q0 716 662 716q663 0 663 -716v-156q0 -717 -663 -717q-662 0 -662 717zM297 1614v51q0 148 68 216.5t184 68.5q50 0 94 -13.5t107 -46.5l98 -53q77 -43 117 -43q37 0 50 22t13 74v49h199v-49q0 -148 -65 -216t-177 -68q-101 0 -215 61l-96 53 q-68 41 -111 41q-36 0 -49.5 -23t-13.5 -73v-51h-203zM477 684q0 -119 19 -202t57 -131t89 -68.5t120 -20.5q94 0 155 37t96.5 132t35.5 253v154q0 229 -71 324t-216 95q-94 0 -155 -38t-95.5 -132t-34.5 -249v-154z" />
<glyph unicode="&#xd6;" horiz-adv-x="1525" d="M100 682v156q0 716 662 716q663 0 663 -716v-156q0 -717 -663 -717q-662 0 -662 717zM358 1640v261h289v-261h-289zM477 684q0 -119 19 -202t57 -131t89 -68.5t120 -20.5q94 0 155 37t96.5 132t35.5 253v154q0 229 -71 324t-216 95q-94 0 -155 -38t-95.5 -132t-34.5 -249 v-154zM881 1640v261h286v-261h-286z" />
<glyph unicode="&#xd7;" horiz-adv-x="1386" d="M207 494l303 294l-303 291l182 183l305 -293l301 293l185 -185l-303 -291l301 -288l-185 -183l-299 289l-303 -293z" />
<glyph unicode="&#xd8;" horiz-adv-x="1525" d="M53 0l160 211q-113 177 -113 471v156q0 716 662 716q242 0 393 -94l47 62h283l-168 -224q108 -171 108 -460v-156q0 -717 -663 -717q-231 0 -387 90l-41 -55h-281zM477 684q0 -64 6 -117l469 623q-67 67 -190 67q-94 0 -155 -38t-95.5 -132t-34.5 -249v-154zM578 324 q65 -62 184 -62q94 0 155 37t96.5 132t35.5 253v154q0 22 -5 100z" />
<glyph unicode="&#xd9;" horiz-adv-x="1562" d="M139 616v906h379v-895q0 -207 56 -290t208 -83q153 0 210 83.5t57 289.5v895h374v-906q0 -324 -165.5 -487.5t-475.5 -163.5q-311 0 -477 163.5t-166 487.5zM317 1915h406l268 -299h-332z" />
<glyph unicode="&#xda;" horiz-adv-x="1562" d="M139 616v906h379v-895q0 -207 56 -290t208 -83q153 0 210 83.5t57 289.5v895h374v-906q0 -324 -165.5 -487.5t-475.5 -163.5q-311 0 -477 163.5t-166 487.5zM582 1618l270 297h403l-340 -297h-333z" />
<glyph unicode="&#xdb;" horiz-adv-x="1562" d="M139 616v906h379v-895q0 -207 56 -290t208 -83q153 0 210 83.5t57 289.5v895h374v-906q0 -324 -165.5 -487.5t-475.5 -163.5q-311 0 -477 163.5t-166 487.5zM295 1616l276 299h426l275 -299h-311l-179 168l-176 -168h-311z" />
<glyph unicode="&#xdc;" horiz-adv-x="1562" d="M139 616v906h379v-895q0 -207 56 -290t208 -83q153 0 210 83.5t57 289.5v895h374v-906q0 -324 -165.5 -487.5t-475.5 -163.5q-311 0 -477 163.5t-166 487.5zM377 1638v260h287v-260h-287zM897 1638v260h287v-260h-287z" />
<glyph unicode="&#xdd;" horiz-adv-x="1445" d="M29 1522h391l205 -404q54 -114 96 -233h10q23 69 100 233l205 404h381l-508 -973v-549h-372v549zM526 1616l271 299h405l-342 -299h-334z" />
<glyph unicode="&#xde;" horiz-adv-x="1427" d="M150 0v1544h368v-229q59 2 162 2q121 0 215 -11t185 -43.5t151 -86t96.5 -143.5t36.5 -212v-24q0 -122 -37 -212.5t-97 -144.5t-150.5 -87t-183.5 -44.5t-210 -11.5q-96 0 -168 2v-299h-368zM518 588q39 -2 160 -2q168 0 241.5 44.5t73.5 168.5v24q-1 123 -73.5 166 t-243.5 43q-31 0 -86.5 -1t-71.5 -1v-442z" />
<glyph unicode="&#xdf;" horiz-adv-x="1441" d="M143 0v1042q0 110 19.5 196.5t63.5 157.5t113.5 118t172 72.5t236.5 25.5q124 0 221.5 -24.5t159.5 -65.5t102.5 -99t57 -119.5t16.5 -132.5v-20q0 -106 -46 -190t-141 -132q110 -50 165.5 -145t55.5 -203v-37q0 -219 -126 -343t-382 -124q-72 0 -186 15v254h88 q135 0 194.5 51.5t59.5 165.5v35q0 103 -62 155t-198 52h-82v225h82q129 0 184.5 51t55.5 152v18q0 91 -50.5 139.5t-177.5 48.5q-133 0 -186 -65.5t-53 -231.5v-1042h-357z" />
<glyph unicode="&#xe0;" horiz-adv-x="1247" d="M86 303v47q0 66 14.5 117.5t39.5 87.5t66 62.5t85 41.5t106.5 24t121 12t136.5 3h109v64q0 75 -16 109.5t-60 48.5t-139 14q-181 0 -377 -21v213q65 25 192 48.5t259 23.5q273 0 385 -99t112 -337v-762h-325v76q-66 -44 -162.5 -75.5t-204.5 -31.5q-167 0 -254.5 84.5 t-87.5 249.5zM203 1591h405l269 -299h-332zM426 315q0 -65 34.5 -91.5t98.5 -26.5q62 0 122.5 18t94.5 37v262h-119q-130 0 -180.5 -28.5t-50.5 -123.5v-47z" />
<glyph unicode="&#xe1;" horiz-adv-x="1247" d="M86 303v47q0 66 14.5 117.5t39.5 87.5t66 62.5t85 41.5t106.5 24t121 12t136.5 3h109v64q0 75 -16 109.5t-60 48.5t-139 14q-181 0 -377 -21v213q65 25 192 48.5t259 23.5q273 0 385 -99t112 -337v-762h-325v76q-66 -44 -162.5 -75.5t-204.5 -31.5q-167 0 -254.5 84.5 t-87.5 249.5zM426 315q0 -65 34.5 -91.5t98.5 -26.5q62 0 122.5 18t94.5 37v262h-119q-130 0 -180.5 -28.5t-50.5 -123.5v-47zM434 1292l268 299h406l-342 -299h-332z" />
<glyph unicode="&#xe2;" horiz-adv-x="1247" d="M86 303v47q0 66 14.5 117.5t39.5 87.5t66 62.5t85 41.5t106.5 24t121 12t136.5 3h109v64q0 75 -16 109.5t-60 48.5t-139 14q-181 0 -377 -21v213q65 25 192 48.5t259 23.5q273 0 385 -99t112 -337v-762h-325v76q-66 -44 -162.5 -75.5t-204.5 -31.5q-167 0 -254.5 84.5 t-87.5 249.5zM139 1292l277 299h426l276 -299h-313l-176 168l-178 -168h-312zM426 315q0 -65 34.5 -91.5t98.5 -26.5q62 0 122.5 18t94.5 37v262h-119q-130 0 -180.5 -28.5t-50.5 -123.5v-47z" />
<glyph unicode="&#xe3;" horiz-adv-x="1247" d="M86 303v47q0 66 14.5 117.5t39.5 87.5t66 62.5t85 41.5t106.5 24t121 12t136.5 3h109v64q0 75 -16 109.5t-60 48.5t-139 14q-181 0 -377 -21v213q65 25 192 48.5t259 23.5q273 0 385 -99t112 -337v-762h-325v76q-66 -44 -162.5 -75.5t-204.5 -31.5q-167 0 -254.5 84.5 t-87.5 249.5zM164 1294v49q0 148 67.5 216.5t182.5 68.5q53 0 96 -12.5t106 -46.5l99 -53q74 -43 116 -43q36 0 49 22t13 74v49h201v-49q0 -148 -65.5 -216.5t-178.5 -68.5q-97 0 -215 62l-96 53q-72 43 -111 43q-35 0 -49 -24.5t-14 -74.5v-49h-201zM426 315 q0 -65 34.5 -91.5t98.5 -26.5q62 0 122.5 18t94.5 37v262h-119q-130 0 -180.5 -28.5t-50.5 -123.5v-47z" />
<glyph unicode="&#xe4;" horiz-adv-x="1247" d="M86 303v47q0 66 14.5 117.5t39.5 87.5t66 62.5t85 41.5t106.5 24t121 12t136.5 3h109v64q0 75 -16 109.5t-60 48.5t-139 14q-181 0 -377 -21v213q65 25 192 48.5t259 23.5q273 0 385 -99t112 -337v-762h-325v76q-66 -44 -162.5 -75.5t-204.5 -31.5q-167 0 -254.5 84.5 t-87.5 249.5zM225 1321v260h287v-260h-287zM426 315q0 -65 34.5 -91.5t98.5 -26.5q62 0 122.5 18t94.5 37v262h-119q-130 0 -180.5 -28.5t-50.5 -123.5v-47zM748 1321v260h284v-260h-284z" />
<glyph unicode="&#xe5;" horiz-adv-x="1247" d="M86 303v47q0 66 14.5 117.5t39.5 87.5t66 62.5t85 41.5t106.5 24t121 12t136.5 3h109v64q0 75 -16 109.5t-60 48.5t-139 14q-181 0 -377 -21v213q65 25 192 48.5t259 23.5q273 0 385 -99t112 -337v-762h-325v76q-66 -44 -162.5 -75.5t-204.5 -31.5q-167 0 -254.5 84.5 t-87.5 249.5zM348 1507q0 118 82.5 184t212.5 66q128 0 208.5 -66t80.5 -184q0 -119 -80 -184.5t-209 -65.5q-131 0 -213 65.5t-82 184.5zM426 315q0 -65 34.5 -91.5t98.5 -26.5q62 0 122.5 18t94.5 37v262h-119q-130 0 -180.5 -28.5t-50.5 -123.5v-47zM528 1507 q0 -49 31 -73.5t84 -24.5q52 0 82.5 24.5t30.5 73.5q0 50 -30.5 74.5t-82.5 24.5t-83.5 -24.5t-31.5 -74.5z" />
<glyph unicode="&#xe6;" horiz-adv-x="1972" d="M86 303v47q0 66 14.5 117.5t39.5 87.5t66 62.5t85 41.5t106.5 24t121 12t136.5 3h109v64q0 72 -14.5 106t-59.5 50t-139 16q-153 0 -379 -19v211q65 25 191.5 48.5t259.5 23.5q140 0 222 -22.5t136 -69.5q133 90 346 90q127 0 225 -32.5t159.5 -86t101.5 -130 t55.5 -157.5t15.5 -176v-127h-766v-16q0 -37 2 -62t8 -53.5t17.5 -46.5t31 -36t48.5 -28t70 -16t94 -6q245 0 440 23v-228q-76 -19 -206 -33t-267 -14q-322 0 -451 138q-111 -76 -222.5 -107t-254.5 -31q-167 0 -254.5 83.5t-87.5 248.5zM426 315q0 -65 34 -91.5t99 -26.5 q60 0 120.5 17.5t96.5 37.5v262h-119q-130 0 -180.5 -28.5t-50.5 -123.5v-47zM1120 682h416v16q0 55 -7.5 94t-28.5 76t-64.5 56.5t-108.5 19.5q-52 0 -90 -14t-60 -36t-35 -55t-17.5 -66t-4.5 -75v-16z" />
<glyph unicode="&#xe7;" horiz-adv-x="1091" d="M96 518v131q0 278 126.5 413.5t393.5 135.5q201 0 392 -45v-244q-265 17 -324 17q-62 0 -102.5 -11t-71.5 -41t-45 -85t-14 -140v-131q0 -85 14 -140t45 -85t72 -41.5t102 -11.5q74 0 324 16v-242q-191 -45 -392 -45q-265 0 -392.5 138t-127.5 411zM223 -416l215 287h379 l-268 -287h-326z" />
<glyph unicode="&#xe8;" horiz-adv-x="1304" d="M96 547v63q0 302 141 445t422 143q128 0 226 -32t160 -86.5t101.5 -134.5t55 -167.5t15.5 -193.5v-97h-768v-16q0 -37 2 -62t8 -52t17.5 -44.5t31.5 -34t49 -25.5t69.5 -14.5t94.5 -5.5q114 0 438 23v-236q-200 -51 -454 -51q-326 0 -467.5 130.5t-141.5 447.5zM244 1591 h405l269 -299h-332zM451 682h415v16q0 55 -7.5 94t-28.5 76t-64.5 56.5t-108.5 19.5q-51 0 -89 -14t-60 -36t-35 -55t-17.5 -66t-4.5 -75v-16z" />
<glyph unicode="&#xe9;" horiz-adv-x="1304" d="M96 547v63q0 302 141 445t422 143q128 0 226 -32t160 -86.5t101.5 -134.5t55 -167.5t15.5 -193.5v-97h-768v-16q0 -37 2 -62t8 -52t17.5 -44.5t31.5 -34t49 -25.5t69.5 -14.5t94.5 -5.5q114 0 438 23v-236q-200 -51 -454 -51q-326 0 -467.5 130.5t-141.5 447.5zM451 682 h415v16q0 55 -7.5 94t-28.5 76t-64.5 56.5t-108.5 19.5q-51 0 -89 -14t-60 -36t-35 -55t-17.5 -66t-4.5 -75v-16zM465 1292l270 299h404l-340 -299h-334z" />
<glyph unicode="&#xea;" horiz-adv-x="1304" d="M96 547v63q0 302 141 445t422 143q128 0 226 -32t160 -86.5t101.5 -134.5t55 -167.5t15.5 -193.5v-97h-768v-16q0 -37 2 -62t8 -52t17.5 -44.5t31.5 -34t49 -25.5t69.5 -14.5t94.5 -5.5q114 0 438 23v-236q-200 -51 -454 -51q-326 0 -467.5 130.5t-141.5 447.5zM168 1292 l276 299h426l277 -299h-313l-177 168l-178 -168h-311zM451 682h415v16q0 55 -7.5 94t-28.5 76t-64.5 56.5t-108.5 19.5q-51 0 -89 -14t-60 -36t-35 -55t-17.5 -66t-4.5 -75v-16z" />
<glyph unicode="&#xeb;" horiz-adv-x="1304" d="M96 547v63q0 302 141 445t422 143q128 0 226 -32t160 -86.5t101.5 -134.5t55 -167.5t15.5 -193.5v-97h-768v-16q0 -37 2 -62t8 -52t17.5 -44.5t31.5 -34t49 -25.5t69.5 -14.5t94.5 -5.5q114 0 438 23v-236q-200 -51 -454 -51q-326 0 -467.5 130.5t-141.5 447.5zM248 1321 v260h289v-260h-289zM451 682h415v16q0 55 -7.5 94t-28.5 76t-64.5 56.5t-108.5 19.5q-51 0 -89 -14t-60 -36t-35 -55t-17.5 -66t-4.5 -75v-16zM770 1321v260h287v-260h-287z" />
<glyph unicode="&#xec;" horiz-adv-x="651" d="M-123 1591h406l268 -299h-332zM147 0v1167h357v-1167h-357z" />
<glyph unicode="&#xed;" horiz-adv-x="651" d="M98 1292l271 299h405l-342 -299h-334zM147 0v1167h357v-1167h-357z" />
<glyph unicode="&#xee;" horiz-adv-x="651" d="M-164 1292l277 299h428l274 -299h-311l-178 168l-176 -168h-314zM147 0v1167h357v-1167h-357z" />
<glyph unicode="&#xef;" horiz-adv-x="651" d="M-82 1321v260h287v-260h-287zM147 0v1167h357v-1167h-357zM440 1321v260h285v-260h-285z" />
<glyph unicode="&#xf0;" horiz-adv-x="1314" d="M96 512v98q0 545 557 545q90 0 162 -35q-81 157 -254 223l-235 -169l-88 98l161 119q-103 18 -182 18q-34 0 -61 -2v205q62 6 112 6q183 0 342 -47l154 112l90 -96l-94 -74q228 -104 343.5 -327.5t115.5 -523.5v-111q0 -295 -141.5 -437.5t-420.5 -142.5t-420 133 t-141 408zM451 512q0 -150 48 -211t158 -61t157.5 61t47.5 211v117q0 138 -48.5 197t-156.5 59q-110 0 -158 -61.5t-48 -207.5v-104z" />
<glyph unicode="&#xf1;" horiz-adv-x="1374" d="M139 0v1167h336v-94q201 125 383 125q74 0 132 -12.5t98 -33.5t68.5 -55.5t44.5 -69.5t25.5 -86t12 -96t2.5 -106v-739h-356v739q0 109 -28.5 150t-111.5 41q-90 0 -249 -66v-864h-357zM221 1294v49q0 147 68.5 216t183.5 69q53 0 96.5 -12.5t106.5 -46.5l96 -53 q77 -43 117 -43q37 0 50 22t13 74v49h201v-49q0 -148 -65.5 -216.5t-178.5 -68.5q-97 0 -215 62l-96 53q-72 43 -111 43q-35 0 -49 -24.5t-14 -74.5v-49h-203z" />
<glyph unicode="&#xf2;" horiz-adv-x="1314" d="M96 518v129q0 551 559 551q564 0 564 -551v-129q0 -549 -564 -549q-559 0 -559 549zM213 1591h405l269 -299h-332zM451 518q0 -153 47.5 -215.5t156.5 -62.5q111 0 159 62.5t48 215.5v129q0 153 -48.5 216t-158.5 63q-109 0 -156.5 -63t-47.5 -216v-129z" />
<glyph unicode="&#xf3;" horiz-adv-x="1314" d="M96 518v129q0 551 559 551q564 0 564 -551v-129q0 -549 -564 -549q-559 0 -559 549zM436 1292l271 299h403l-340 -299h-334zM451 518q0 -153 47.5 -215.5t156.5 -62.5q111 0 159 62.5t48 215.5v129q0 153 -48.5 216t-158.5 63q-109 0 -156.5 -63t-47.5 -216v-129z" />
<glyph unicode="&#xf4;" horiz-adv-x="1314" d="M96 518v129q0 551 559 551q564 0 564 -551v-129q0 -549 -564 -549q-559 0 -559 549zM168 1292l276 299h426l277 -299h-313l-177 168l-178 -168h-311zM451 518q0 -153 47.5 -215.5t156.5 -62.5q111 0 159 62.5t48 215.5v129q0 153 -48.5 216t-158.5 63q-109 0 -156.5 -63 t-47.5 -216v-129z" />
<glyph unicode="&#xf5;" horiz-adv-x="1314" d="M96 518v129q0 551 559 551q564 0 564 -551v-129q0 -549 -564 -549q-559 0 -559 549zM193 1294v49q0 148 67.5 216.5t183.5 68.5q51 0 94.5 -12.5t106.5 -46.5l98 -53q30 -17 43 -23.5t34 -13t40 -6.5q36 0 49 22t13 74v49h200v-49q0 -148 -65 -216.5t-178 -68.5 q-97 0 -213 62l-97 53q-72 43 -112 43q-35 0 -49.5 -24.5t-14.5 -74.5v-49h-200zM451 518q0 -153 47.5 -215.5t156.5 -62.5q111 0 159 62.5t48 215.5v129q0 153 -48.5 216t-158.5 63q-109 0 -156.5 -63t-47.5 -216v-129z" />
<glyph unicode="&#xf6;" horiz-adv-x="1314" d="M96 518v129q0 551 559 551q564 0 564 -551v-129q0 -549 -564 -549q-559 0 -559 549zM254 1321v260h287v-260h-287zM451 518q0 -153 47.5 -215.5t156.5 -62.5q111 0 159 62.5t48 215.5v129q0 153 -48.5 216t-158.5 63q-109 0 -156.5 -63t-47.5 -216v-129zM776 1321v260 h285v-260h-285z" />
<glyph unicode="&#xf7;" horiz-adv-x="1386" d="M174 655v271h1036v-271h-1036zM518 154v313h348v-313h-348zM518 1108v315h348v-315h-348z" />
<glyph unicode="&#xf8;" horiz-adv-x="1314" d="M47 -31l148 185q-99 135 -99 364v129q0 551 559 551q200 0 328 -70l57 70h205l-139 -170q113 -137 113 -381v-129q0 -549 -564 -549q-204 0 -342 78l-61 -78h-205zM451 469l337 418q-48 39 -133 39q-109 0 -156.5 -63t-47.5 -216v-178zM510 289q46 -49 145 -49 q111 0 159 62.5t48 215.5v129q0 28 -4 74z" />
<glyph unicode="&#xf9;" d="M137 428v739h357v-739q0 -109 27.5 -149.5t111.5 -40.5q90 0 250 65v864h356v-1167h-336v94q-214 -125 -409 -125q-92 0 -159 26t-104.5 66.5t-59.5 104t-28 123t-6 139.5zM244 1591h403l271 -299h-334z" />
<glyph unicode="&#xfa;" d="M137 428v739h357v-739q0 -109 27.5 -149.5t111.5 -40.5q90 0 250 65v864h356v-1167h-336v94q-214 -125 -409 -125q-92 0 -159 26t-104.5 66.5t-59.5 104t-28 123t-6 139.5zM479 1292l271 299h405l-342 -299h-334z" />
<glyph unicode="&#xfb;" d="M137 428v739h357v-739q0 -109 27.5 -149.5t111.5 -40.5q90 0 250 65v864h356v-1167h-336v94q-214 -125 -409 -125q-92 0 -159 26t-104.5 66.5t-59.5 104t-28 123t-6 139.5zM203 1292l276 299h426l275 -299h-312l-178 168l-176 -168h-311z" />
<glyph unicode="&#xfc;" d="M137 428v739h357v-739q0 -109 27.5 -149.5t111.5 -40.5q90 0 250 65v864h356v-1167h-336v94q-214 -125 -409 -125q-92 0 -159 26t-104.5 66.5t-59.5 104t-28 123t-6 139.5zM287 1321v260h286v-260h-286zM809 1321v260h285v-260h-285z" />
<glyph unicode="&#xfd;" horiz-adv-x="1304" d="M47 1167h383l172 -600q15 -57 38.5 -165.5t31.5 -143.5h4q37 194 67 311l156 598h363l-371 -1175q-46 -160 -106 -252.5t-152 -137t-230 -44.5q-199 0 -329 26v228q125 -5 221 -5q63 0 94.5 30t61.5 112l20 63zM473 1292l270 299h404l-340 -299h-334z" />
<glyph unicode="&#xfe;" horiz-adv-x="1339" d="M139 -416v2011h334v-499q160 102 338 102q432 0 432 -539v-139q0 -148 -37.5 -255.5t-109.5 -171.5t-169 -94t-225 -30q-86 0 -206 19v-404h-357zM492 254q101 -16 176 -16q58 0 96 12t67 42.5t42.5 86t13.5 141.5v139q0 148 -44 207.5t-147 59.5q-93 0 -204 -49v-623z " />
<glyph unicode="&#xff;" horiz-adv-x="1304" d="M47 1167h383l172 -600q15 -57 38.5 -165.5t31.5 -143.5h4q37 194 67 311l156 598h363l-371 -1175q-46 -160 -106 -252.5t-152 -137t-230 -44.5q-199 0 -329 26v228q125 -5 221 -5q63 0 94.5 30t61.5 112l20 63zM270 1321v260h289v-260h-289zM793 1321v260h286v-260h-286z " />
<glyph unicode="&#x100;" horiz-adv-x="1531" d="M43 0l424 1522h594l428 -1522h-402l-108 383h-432l-111 -383h-393zM348 1655v205h836v-205h-836zM600 657h328l-111 404q-30 125 -47 233h-14q-21 -137 -47 -233z" />
<glyph unicode="&#x101;" horiz-adv-x="1247" d="M86 303v47q0 66 14.5 117.5t39.5 87.5t66 62.5t85 41.5t106.5 24t121 12t136.5 3h109v64q0 75 -16 109.5t-60 48.5t-139 14q-181 0 -377 -21v213q65 25 192 48.5t259 23.5q273 0 385 -99t112 -337v-762h-325v76q-66 -44 -162.5 -75.5t-204.5 -31.5q-167 0 -254.5 84.5 t-87.5 249.5zM211 1337v203h836v-203h-836zM426 315q0 -65 34.5 -91.5t98.5 -26.5q62 0 122.5 18t94.5 37v262h-119q-130 0 -180.5 -28.5t-50.5 -123.5v-47z" />
<glyph unicode="&#x102;" horiz-adv-x="1531" d="M43 0l424 1522h594l428 -1522h-402l-108 383h-432l-111 -383h-393zM340 1933h209q11 -87 67.5 -122t149.5 -35q94 0 150 35t69 122h207q-10 -85 -48.5 -149t-97.5 -102t-129.5 -57t-150.5 -19t-150.5 19t-129.5 57t-97.5 102t-48.5 149zM600 657h328l-111 404 q-30 125 -47 233h-14q-21 -137 -47 -233z" />
<glyph unicode="&#x103;" horiz-adv-x="1247" d="M86 303v47q0 66 14.5 117.5t39.5 87.5t66 62.5t85 41.5t106.5 24t121 12t136.5 3h109v64q0 75 -16 109.5t-60 48.5t-139 14q-181 0 -377 -21v213q65 25 192 48.5t259 23.5q273 0 385 -99t112 -337v-762h-325v76q-66 -44 -162.5 -75.5t-204.5 -31.5q-167 0 -254.5 84.5 t-87.5 249.5zM211 1616h209q11 -87 67.5 -122.5t149.5 -35.5q94 0 150 35.5t69 122.5h207q-13 -112 -77 -188t-152.5 -108t-196.5 -32q-168 0 -286.5 81.5t-139.5 246.5zM426 315q0 -65 34.5 -91.5t98.5 -26.5q62 0 122.5 18t94.5 37v262h-119q-130 0 -180.5 -28.5 t-50.5 -123.5v-47z" />
<glyph unicode="&#x104;" horiz-adv-x="1531" d="M43 0l424 1522h594l428 -1522q-86 -31 -143 -58t-86.5 -49t-40.5 -39.5t-11 -35.5q0 -36 25.5 -54t83.5 -18q39 0 172 10v-166q-114 -34 -277 -34q-307 0 -307 215q0 64 45.5 126.5t132.5 112.5l-104 373h-432l-111 -383h-393zM600 657h328l-111 404q-30 125 -47 233h-14 q-21 -137 -47 -233z" />
<glyph unicode="&#x105;" horiz-adv-x="1247" d="M86 303v47q0 66 14.5 117.5t39.5 87.5t66 62.5t85 41.5t106.5 24t121 12t136.5 3h109v64q0 75 -16 109.5t-60 48.5t-139 14q-181 0 -377 -21v213q65 25 192 48.5t259 23.5q273 0 385 -99t112 -337v-762q-162 -60 -220 -102t-58 -80q0 -37 24.5 -54.5t83.5 -17.5 q42 0 170 10v-166q-114 -34 -276 -34q-307 0 -307 180q0 85 65.5 148t192.5 112v92q-177 -119 -367 -119q-167 0 -254.5 84.5t-87.5 249.5zM426 315q0 -65 34.5 -91.5t98.5 -26.5q62 0 122.5 18t94.5 37v262h-119q-130 0 -180.5 -28.5t-50.5 -123.5v-47z" />
<glyph unicode="&#x106;" horiz-adv-x="1261" d="M100 674v176q0 163 30 284t85 201t141 129t189.5 69.5t238.5 20.5q92 0 223 -14t189 -29v-272q-230 18 -375 18q-89 0 -148 -17t-103 -61.5t-63.5 -125t-19.5 -203.5v-176q0 -124 20 -205t64 -126.5t103 -63t149 -17.5q156 0 373 17v-273q-59 -14 -190 -27.5t-222 -13.5 q-112 0 -201.5 14.5t-168 47t-135.5 87t-98 132.5t-61 185t-20 243zM545 1616l270 299h404l-340 -299h-334z" />
<glyph unicode="&#x107;" horiz-adv-x="1091" d="M96 518v131q0 278 126.5 413.5t393.5 135.5q201 0 392 -45v-244q-265 17 -324 17q-62 0 -102.5 -11t-71.5 -41t-45 -85t-14 -140v-131q0 -85 14 -140t45 -85t72 -41.5t102 -11.5q74 0 324 16v-242q-191 -45 -392 -45q-265 0 -392.5 138t-127.5 411zM416 1292l268 299h406 l-342 -299h-332z" />
<glyph unicode="&#x108;" horiz-adv-x="1261" d="M100 674v176q0 163 30 284t85 201t141 129t189.5 69.5t238.5 20.5q92 0 223 -14t189 -29v-272q-230 18 -375 18q-89 0 -148 -17t-103 -61.5t-63.5 -125t-19.5 -203.5v-176q0 -124 20 -205t64 -126.5t103 -63t149 -17.5q156 0 373 17v-273q-59 -14 -190 -27.5t-222 -13.5 q-112 0 -201.5 14.5t-168 47t-135.5 87t-98 132.5t-61 185t-20 243zM219 1616l277 299h428l274 -299h-311l-178 168l-177 -168h-313z" />
<glyph unicode="&#x109;" horiz-adv-x="1091" d="M96 518v131q0 278 126.5 413.5t393.5 135.5q201 0 392 -45v-244q-265 17 -324 17q-62 0 -102.5 -11t-71.5 -41t-45 -85t-14 -140v-131q0 -85 14 -140t45 -85t72 -41.5t102 -11.5q74 0 324 16v-242q-191 -45 -392 -45q-265 0 -392.5 138t-127.5 411zM121 1292l276 299h428 l275 -299h-312l-178 168l-176 -168h-313z" />
<glyph unicode="&#x10a;" horiz-adv-x="1261" d="M100 674v176q0 163 30 284t85 201t141 129t189.5 69.5t238.5 20.5q92 0 223 -14t189 -29v-272q-230 18 -375 18q-89 0 -148 -17t-103 -61.5t-63.5 -125t-19.5 -203.5v-176q0 -124 20 -205t64 -126.5t103 -63t149 -17.5q156 0 373 17v-273q-59 -14 -190 -27.5t-222 -13.5 q-112 0 -201.5 14.5t-168 47t-135.5 87t-98 132.5t-61 185t-20 243zM557 1638v260h369v-260h-369z" />
<glyph unicode="&#x10b;" horiz-adv-x="1091" d="M96 518v131q0 278 126.5 413.5t393.5 135.5q201 0 392 -45v-244q-265 17 -324 17q-62 0 -102.5 -11t-71.5 -41t-45 -85t-14 -140v-131q0 -85 14 -140t45 -85t72 -41.5t102 -11.5q74 0 324 16v-242q-191 -45 -392 -45q-265 0 -392.5 138t-127.5 411zM434 1333v260h369 v-260h-369z" />
<glyph unicode="&#x10c;" horiz-adv-x="1261" d="M100 674v176q0 163 30 284t85 201t141 129t189.5 69.5t238.5 20.5q92 0 223 -14t189 -29v-272q-230 18 -375 18q-89 0 -148 -17t-103 -61.5t-63.5 -125t-19.5 -203.5v-176q0 -124 20 -205t64 -126.5t103 -63t149 -17.5q156 0 373 17v-273q-59 -14 -190 -27.5t-222 -13.5 q-112 0 -201.5 14.5t-168 47t-135.5 87t-98 132.5t-61 185t-20 243zM250 1915h311l176 -168l178 168h312l-275 -299h-426z" />
<glyph unicode="&#x10d;" horiz-adv-x="1091" d="M96 518v131q0 278 126.5 413.5t393.5 135.5q201 0 392 -45v-244q-265 17 -324 17q-62 0 -102.5 -11t-71.5 -41t-45 -85t-14 -140v-131q0 -85 14 -140t45 -85t72 -41.5t102 -11.5q74 0 324 16v-242q-191 -45 -392 -45q-265 0 -392.5 138t-127.5 411zM115 1591h311 l178 -168l176 168h314l-277 -299h-426z" />
<glyph unicode="&#x10e;" horiz-adv-x="1511" d="M150 0v1522q251 18 524 18q383 0 560 -168t177 -528v-158q0 -368 -174 -536t-563 -168q-271 0 -524 18zM256 1913h311l178 -168l177 168h313l-277 -299h-426zM522 268h156q132 0 207.5 37t112 128t36.5 253v158q0 162 -37 250.5t-111.5 122.5t-207.5 34h-156v-983z" />
<glyph unicode="&#x10f;" horiz-adv-x="1693" d="M96 506v143q0 151 36 258.5t107 170.5t166 91.5t222 28.5q96 0 215 -18v415h356v-1595h-330v59q-147 -90 -329 -90q-214 0 -328.5 133.5t-114.5 403.5zM453 506q0 -148 44 -207t156 -59q96 0 193 41v632q-107 17 -176 17q-59 0 -96 -10.5t-66 -40.5t-42 -86t-13 -144 v-143zM1298 1073l119 522h318l-181 -522h-256z" />
<glyph unicode="&#x110;" horiz-adv-x="1511" d="M47 651v258h103v613q226 18 524 18q383 0 560 -168t177 -528v-158q0 -368 -174 -536t-563 -168q-298 0 -524 18v651h-103zM522 268h156q132 0 207.5 37t112 128t36.5 253v158q0 162 -37 250.5t-111.5 122.5t-207.5 34h-156v-342h226v-258h-226v-383z" />
<glyph unicode="&#x111;" horiz-adv-x="1372" d="M96 506v143q0 151 36 258.5t107 170.5t166 91.5t222 28.5q96 0 215 -18v127h-340v174h340v114h356v-114h117v-174h-117v-1307h-330v59q-147 -90 -329 -90q-214 0 -328.5 133.5t-114.5 403.5zM453 506q0 -148 44 -207t156 -59q91 0 193 41v632q-107 17 -176 17 q-59 0 -96 -10.5t-66 -40.5t-42 -86t-13 -144v-143z" />
<glyph unicode="&#x112;" horiz-adv-x="1286" d="M150 0v1522h1036v-279h-654v-332h611v-264h-611v-371h654v-276h-1036zM258 1655v205h836v-205h-836z" />
<glyph unicode="&#x113;" horiz-adv-x="1304" d="M96 547v63q0 302 141 445t422 143q128 0 226 -32t160 -86.5t101.5 -134.5t55 -167.5t15.5 -193.5v-97h-768v-16q0 -37 2 -62t8 -52t17.5 -44.5t31.5 -34t49 -25.5t69.5 -14.5t94.5 -5.5q114 0 438 23v-236q-200 -51 -454 -51q-326 0 -467.5 130.5t-141.5 447.5zM229 1337 v203h838v-203h-838zM451 682h415v16q0 55 -7.5 94t-28.5 76t-64.5 56.5t-108.5 19.5q-51 0 -89 -14t-60 -36t-35 -55t-17.5 -66t-4.5 -75v-16z" />
<glyph unicode="&#x114;" horiz-adv-x="1286" d="M150 0v1522h1036v-279h-654v-332h611v-264h-611v-371h654v-276h-1036zM254 1933h209q11 -87 67.5 -122t149.5 -35q94 0 150 35t69 122h207q-10 -85 -48.5 -149t-97.5 -102t-129.5 -57t-150.5 -19t-150.5 19t-129.5 57t-97.5 102t-48.5 149z" />
<glyph unicode="&#x115;" horiz-adv-x="1304" d="M96 547v63q0 302 141 445t422 143q128 0 226 -32t160 -86.5t101.5 -134.5t55 -167.5t15.5 -193.5v-97h-768v-16q0 -37 2 -62t8 -52t17.5 -44.5t31.5 -34t49 -25.5t69.5 -14.5t94.5 -5.5q114 0 438 23v-236q-200 -51 -454 -51q-326 0 -467.5 130.5t-141.5 447.5zM227 1614 h209q11 -87 67.5 -122.5t149.5 -35.5q94 0 150 35.5t69 122.5h207q-10 -85 -48.5 -149t-97.5 -102t-129.5 -56.5t-150.5 -18.5t-150.5 18.5t-129.5 56.5t-97.5 102t-48.5 149zM451 682h415v16q0 55 -7.5 94t-28.5 76t-64.5 56.5t-108.5 19.5q-51 0 -89 -14t-60 -36t-35 -55 t-17.5 -66t-4.5 -75v-16z" />
<glyph unicode="&#x116;" horiz-adv-x="1286" d="M150 0v1522h1036v-279h-654v-332h611v-264h-611v-371h654v-276h-1036zM479 1638v260h369v-260h-369z" />
<glyph unicode="&#x117;" horiz-adv-x="1304" d="M96 547v63q0 302 141 445t422 143q128 0 226 -32t160 -86.5t101.5 -134.5t55 -167.5t15.5 -193.5v-97h-768v-16q0 -37 2 -62t8 -52t17.5 -44.5t31.5 -34t49 -25.5t69.5 -14.5t94.5 -5.5q114 0 438 23v-236q-200 -51 -454 -51q-326 0 -467.5 130.5t-141.5 447.5zM451 682 h415v16q0 55 -7.5 94t-28.5 76t-64.5 56.5t-108.5 19.5q-51 0 -89 -14t-60 -36t-35 -55t-17.5 -66t-4.5 -75v-16zM463 1333v260h368v-260h-368z" />
<glyph unicode="&#x118;" horiz-adv-x="1286" d="M150 0v1522h1036v-279h-654v-332h611v-264h-611v-371h654v-276q-162 -60 -220.5 -102t-58.5 -80q0 -37 25 -54.5t84 -17.5q42 0 170 10v-166q-114 -34 -277 -34q-149 0 -228 51t-79 151q0 74 63 137t189 105h-704z" />
<glyph unicode="&#x119;" horiz-adv-x="1304" d="M96 547v63q0 302 141 445t422 143q128 0 226 -32t160 -86.5t101.5 -134.5t55 -167.5t15.5 -193.5v-97h-768v-16q0 -37 2 -62t8 -52t17.5 -44.5t31.5 -34t49 -25.5t69.5 -14.5t94.5 -5.5q114 0 438 23v-236q-280 -102 -280 -202q0 -37 25 -54.5t83 -17.5q39 0 172 10v-166 q-114 -34 -276 -34q-151 0 -230.5 51t-79.5 151q0 56 37.5 112t108.5 99h-14q-326 0 -467.5 130.5t-141.5 447.5zM451 682h415v16q0 55 -7.5 94t-28.5 76t-64.5 56.5t-108.5 19.5q-51 0 -89 -14t-60 -36t-35 -55t-17.5 -66t-4.5 -75v-16z" />
<glyph unicode="&#x11a;" horiz-adv-x="1286" d="M150 0v1522h1036v-279h-654v-332h611v-264h-611v-371h654v-276h-1036zM186 1915h312l178 -168l176 168h313l-276 -299h-426z" />
<glyph unicode="&#x11b;" horiz-adv-x="1304" d="M96 547v63q0 302 141 445t422 143q128 0 226 -32t160 -86.5t101.5 -134.5t55 -167.5t15.5 -193.5v-97h-768v-16q0 -37 2 -62t8 -52t17.5 -44.5t31.5 -34t49 -25.5t69.5 -14.5t94.5 -5.5q114 0 438 23v-236q-200 -51 -454 -51q-326 0 -467.5 130.5t-141.5 447.5zM176 1591 h311l179 -168l176 168h313l-276 -299h-426zM451 682h415v16q0 55 -7.5 94t-28.5 76t-64.5 56.5t-108.5 19.5q-51 0 -89 -14t-60 -36t-35 -55t-17.5 -66t-4.5 -75v-16z" />
<glyph unicode="&#x11c;" horiz-adv-x="1443" d="M100 672v180q0 127 20.5 230.5t55.5 175.5t87.5 126t109 86t128 51.5t136.5 26t143 6.5q150 0 306 -18.5t227 -36.5v-260q-318 18 -461 18q-65 0 -111 -5.5t-91 -20.5t-74 -43t-52.5 -72.5t-34 -110t-10.5 -153.5v-180q0 -161 34.5 -251.5t99 -124.5t175.5 -34 q126 0 175 4v555h356v-807q-260 -49 -547 -49q-82 0 -151.5 8.5t-139.5 30.5t-125.5 56.5t-104.5 90t-81.5 128t-51 172t-18.5 221.5zM250 1616l276 299h426l277 -299h-314l-176 168l-178 -168h-311z" />
<glyph unicode="&#x11d;" horiz-adv-x="1341" d="M100 535v118q0 284 148.5 414.5t474.5 130.5q214 0 479 -31v-1198q0 -81 -16 -143t-54.5 -113.5t-101.5 -85t-157.5 -51.5t-221.5 -18q-145 0 -288 17t-195 30v213q377 -17 455 -17q75 0 119.5 9t67.5 32t29.5 50.5t6.5 76.5v39q-104 -16 -187 -16q-276 0 -417.5 131 t-141.5 412zM184 1292l277 299h428l274 -299h-311l-178 168l-176 -168h-314zM455 535q0 -152 51.5 -213.5t179.5 -61.5q100 0 162 10v650q-57 10 -160 10q-133 0 -183 -64.5t-50 -212.5v-118z" />
<glyph unicode="&#x11e;" horiz-adv-x="1443" d="M100 672v180q0 127 20.5 230.5t55.5 175.5t87.5 126t109 86t128 51.5t136.5 26t143 6.5q150 0 306 -18.5t227 -36.5v-260q-318 18 -461 18q-65 0 -111 -5.5t-91 -20.5t-74 -43t-52.5 -72.5t-34 -110t-10.5 -153.5v-180q0 -161 34.5 -251.5t99 -124.5t175.5 -34 q126 0 175 4v555h356v-807q-260 -49 -547 -49q-82 0 -151.5 8.5t-139.5 30.5t-125.5 56.5t-104.5 90t-81.5 128t-51 172t-18.5 221.5zM344 1942h209q11 -87 67.5 -122.5t149.5 -35.5q94 0 150 35.5t69 122.5h207q-13 -112 -77 -188t-152.5 -108t-196.5 -32 q-168 0 -286.5 81.5t-139.5 246.5z" />
<glyph unicode="&#x11f;" horiz-adv-x="1341" d="M100 535v118q0 284 148.5 414.5t474.5 130.5q214 0 479 -31v-1198q0 -81 -16 -143t-54.5 -113.5t-101.5 -85t-157.5 -51.5t-221.5 -18q-145 0 -288 17t-195 30v213q377 -17 455 -17q75 0 119.5 9t67.5 32t29.5 50.5t6.5 76.5v39q-104 -16 -187 -16q-276 0 -417.5 131 t-141.5 412zM250 1614h207q11 -87 67.5 -122.5t149.5 -35.5q94 0 151 35.5t68 122.5h207q-10 -85 -48.5 -149t-97.5 -102t-129.5 -56.5t-150.5 -18.5q-79 0 -149 18.5t-129 56.5t-97.5 102.5t-48.5 148.5zM455 535q0 -152 51.5 -213.5t179.5 -61.5q100 0 162 10v650 q-57 10 -160 10q-133 0 -183 -64.5t-50 -212.5v-118z" />
<glyph unicode="&#x120;" horiz-adv-x="1443" d="M100 672v180q0 127 20.5 230.5t55.5 175.5t87.5 126t109 86t128 51.5t136.5 26t143 6.5q150 0 306 -18.5t227 -36.5v-260q-318 18 -461 18q-65 0 -111 -5.5t-91 -20.5t-74 -43t-52.5 -72.5t-34 -110t-10.5 -153.5v-180q0 -161 34.5 -251.5t99 -124.5t175.5 -34 q126 0 175 4v555h356v-807q-260 -49 -547 -49q-82 0 -151.5 8.5t-139.5 30.5t-125.5 56.5t-104.5 90t-81.5 128t-51 172t-18.5 221.5zM567 1638v260h369v-260h-369z" />
<glyph unicode="&#x121;" horiz-adv-x="1341" d="M100 535v118q0 284 148.5 414.5t474.5 130.5q214 0 479 -31v-1198q0 -81 -16 -143t-54.5 -113.5t-101.5 -85t-157.5 -51.5t-221.5 -18q-145 0 -288 17t-195 30v213q377 -17 455 -17q75 0 119.5 9t67.5 32t29.5 50.5t6.5 76.5v39q-104 -16 -187 -16q-276 0 -417.5 131 t-141.5 412zM455 535q0 -152 51.5 -213.5t179.5 -61.5q100 0 162 10v650q-57 10 -160 10q-133 0 -183 -64.5t-50 -212.5v-118zM492 1333v260h366v-260h-366z" />
<glyph unicode="&#x122;" horiz-adv-x="1443" d="M100 672v180q0 127 20.5 230.5t55.5 175.5t87.5 126t109 86t128 51.5t136.5 26t143 6.5q150 0 306 -18.5t227 -36.5v-260q-318 18 -461 18q-65 0 -111 -5.5t-91 -20.5t-74 -43t-52.5 -72.5t-34 -110t-10.5 -153.5v-180q0 -161 34.5 -251.5t99 -124.5t175.5 -34 q126 0 175 4v555h356v-807q-260 -49 -547 -49q-82 0 -151.5 8.5t-139.5 30.5t-125.5 56.5t-104.5 90t-81.5 128t-51 172t-18.5 221.5zM463 -416l139 287h369l-197 -287h-311z" />
<glyph unicode="&#x123;" horiz-adv-x="1341" d="M100 535v118q0 284 148.5 414.5t474.5 130.5q214 0 479 -31v-1198q0 -81 -16 -143t-54.5 -113.5t-101.5 -85t-157.5 -51.5t-221.5 -18q-145 0 -288 17t-195 30v213q377 -17 455 -17q75 0 119.5 9t67.5 32t29.5 50.5t6.5 76.5v39q-104 -16 -187 -16q-276 0 -417.5 131 t-141.5 412zM455 535q0 -152 51.5 -213.5t179.5 -61.5q100 0 162 10v650q-57 10 -160 10q-133 0 -183 -64.5t-50 -212.5v-118zM518 1292l195 287h311l-137 -287h-369z" />
<glyph unicode="&#x124;" horiz-adv-x="1638" d="M150 0v1522h385v-590h571v590h383v-1522h-383v641h-571v-641h-385zM334 1614l276 299h426l275 -299h-312l-178 168l-176 -168h-311z" />
<glyph unicode="&#x125;" d="M139 0v1595h357v-479q164 82 350 82q95 0 165.5 -22.5t114 -61t69.5 -98t36 -125.5t10 -152v-739h-356v735q0 113 -33.5 154t-120.5 41q-116 0 -235 -56v-874h-357zM199 1632l276 299h426l277 -299h-314l-176 168l-178 -168h-311z" />
<glyph unicode="&#x126;" horiz-adv-x="1638" d="M23 1133v163h127v226h385v-226h571v226h383v-226h123v-163h-123v-1133h-383v641h-571v-641h-385v1133h-127zM535 932h571v201h-571v-201z" />
<glyph unicode="&#x127;" d="M27 1311v170h112v114h359v-114h344v-170h-344v-195q70 36 163 59t185 23q95 0 165.5 -22.5t114 -61t69.5 -98t36 -125.5t10 -152v-739h-356v735q0 113 -33.5 154t-120.5 41q-114 0 -233 -56v-874h-359v1311h-112z" />
<glyph unicode="&#x128;" horiz-adv-x="681" d="M-125 1616v51q0 146 67.5 214.5t182.5 68.5q52 0 96 -13t107 -47l98 -53q74 -43 117 -43q35 0 48 22t13 74v49h201v-49q0 -148 -65.5 -216t-178.5 -68q-95 0 -215 63l-96 53q-68 41 -111 41q-35 0 -49 -23t-14 -73v-51h-201zM150 0v1522h382v-1522h-382z" />
<glyph unicode="&#x129;" horiz-adv-x="651" d="M-139 1294v49q0 147 68.5 216t183.5 69q53 0 96 -12.5t106 -46.5l97 -53q77 -43 116 -43q37 0 50.5 22t13.5 74v49h201v-49q0 -148 -65.5 -216.5t-178.5 -68.5q-97 0 -215 62l-96 53q-72 43 -111 43q-35 0 -49.5 -24.5t-14.5 -74.5v-49h-202zM147 0v1167h357v-1167h-357z " />
<glyph unicode="&#x12a;" horiz-adv-x="681" d="M-76 1655v205h836v-205h-836zM150 0v1522h382v-1522h-382z" />
<glyph unicode="&#x12b;" horiz-adv-x="651" d="M-92 1337v203h837v-203h-837zM147 0v1167h357v-1167h-357z" />
<glyph unicode="&#x12c;" horiz-adv-x="681" d="M-84 1942h209q11 -87 67.5 -122.5t149.5 -35.5q94 0 150 35.5t69 122.5h207q-10 -85 -48.5 -149t-97.5 -102t-129.5 -56.5t-150.5 -18.5t-150 18.5t-129 56.5t-97.5 102t-49.5 149zM150 0v1522h382v-1522h-382z" />
<glyph unicode="&#x12d;" horiz-adv-x="651" d="M-98 1614h207q11 -87 67.5 -122.5t149.5 -35.5q94 0 151 35.5t68 122.5h207q-10 -85 -48.5 -149t-97.5 -102t-129.5 -56.5t-150.5 -18.5q-79 0 -149 18.5t-129 56.5t-97.5 102.5t-48.5 148.5zM147 0v1167h357v-1167h-357z" />
<glyph unicode="&#x12e;" horiz-adv-x="681" d="M41 -225q0 134 109 229v1518h382v-1522q-105 -50 -145.5 -97t-40.5 -85q0 -36 25.5 -54t83.5 -18q39 0 172 10v-166q-114 -34 -277 -34q-158 0 -233.5 48.5t-75.5 170.5z" />
<glyph unicode="&#x12f;" horiz-adv-x="651" d="M31 -225q0 131 116 229v1163h357v-1167q-168 -92 -168 -178q0 -37 24.5 -56.5t83.5 -19.5q42 0 170 10v-166q-114 -34 -276 -34q-307 0 -307 219zM141 1327v268h371v-268h-371z" />
<glyph unicode="&#x130;" horiz-adv-x="681" d="M150 0v1522h382v-1522h-382zM158 1638v260h368v-260h-368z" />
<glyph unicode="&#x131;" horiz-adv-x="651" d="M147 0v1167h357v-1167h-357z" />
<glyph unicode="&#x132;" horiz-adv-x="1411" d="M162 0v1522h383v-1522h-383zM641 -188q103 -5 109 -5q74 0 95 27.5t21 104.5v1583h383v-1569q0 -209 -96.5 -301t-308.5 -92q-122 0 -203 18v234z" />
<glyph unicode="&#x133;" horiz-adv-x="1312" d="M143 1327v268h371v-268h-371zM150 0v1167h356v-1167h-356zM586 -205q19 0 57 -1t59 -1q66 0 85.5 27t19.5 108v1239h356v-1239q0 -210 -85.5 -292t-291.5 -82q-130 0 -200 16v225zM801 1327v268h370v-268h-370z" />
<glyph unicode="&#x134;" horiz-adv-x="681" d="M-147 1616l276 299h426l274 -299h-311l-178 168l-176 -168h-311zM-76 -422l15 246q2 0 94 -17q74 0 95.5 27.5t21.5 104.5v1583h382v-1569q0 -209 -96.5 -301t-308.5 -92q-122 0 -203 18z" />
<glyph unicode="&#x135;" horiz-adv-x="651" d="M-164 1292l277 299h426l276 -299h-313l-176 168l-179 -168h-311zM-74 -203q39 -2 115 -2q67 0 86.5 26t19.5 107v1239h357v-1239q0 -210 -85.5 -292t-291.5 -82q-127 0 -201 18v225z" />
<glyph unicode="&#x136;" horiz-adv-x="1511" d="M156 0v1522h385v-705l520 705h442l-567 -752l561 -770h-463l-493 707v-707h-385zM498 -416l137 287h369l-195 -287h-311z" />
<glyph unicode="&#x137;" horiz-adv-x="1277" d="M139 0v1595h357v-944l366 516h381l-405 -561l422 -606h-404l-360 541v-541h-357zM356 -416l138 287h368l-194 -287h-312z" />
<glyph unicode="&#x138;" horiz-adv-x="1277" d="M139 0v1167h357v-516l366 516h381l-405 -561l422 -606h-404l-360 541v-541h-357z" />
<glyph unicode="&#x139;" horiz-adv-x="1185" d="M150 0v1522h385v-1235h595v-287h-980zM416 1616l270 299h404l-340 -299h-334z" />
<glyph unicode="&#x13a;" horiz-adv-x="649" d="M123 1634l270 299h404l-340 -299h-334zM147 0v1595h357v-1595h-357z" />
<glyph unicode="&#x13b;" horiz-adv-x="1185" d="M150 0v1522h385v-1235h595v-287h-980zM346 -416l137 287h369l-195 -287h-311z" />
<glyph unicode="&#x13c;" horiz-adv-x="649" d="M4 -416l137 287h369l-195 -287h-311zM147 0v1595h357v-1595h-357z" />
<glyph unicode="&#x13d;" horiz-adv-x="1185" d="M150 0v1522h385v-1235h595v-287h-980zM723 1032l125 522h317l-192 -522h-250z" />
<glyph unicode="&#x13e;" horiz-adv-x="1024" d="M147 0v1595h357v-1595h-357zM623 1071l125 524h317l-193 -524h-249z" />
<glyph unicode="&#x13f;" horiz-adv-x="1185" d="M150 0v1522h385v-1235h595v-287h-980zM719 713v338h338v-338h-338z" />
<glyph unicode="&#x140;" horiz-adv-x="999" d="M147 0v1595h357v-1595h-357zM641 586v338h338v-338h-338z" />
<glyph unicode="&#x141;" horiz-adv-x="1185" d="M16 451v221l134 104v746h385v-523l196 154v-221l-196 -154v-489h595v-289h-980v559z" />
<glyph unicode="&#x142;" horiz-adv-x="720" d="M25 406v270l157 139v780h357v-467l157 140v-271l-157 -139v-858h-357v545z" />
<glyph unicode="&#x143;" horiz-adv-x="1589" d="M150 0v1522h391l444 -777q59 -105 109 -215h4q-6 108 -6 261v731h348v-1522h-398l-440 791q-60 107 -106 208h-4q6 -240 6 -245v-754h-348zM600 1616l270 299h404l-340 -299h-334z" />
<glyph unicode="&#x144;" horiz-adv-x="1374" d="M139 0v1167h336v-94q201 125 383 125q74 0 132 -12.5t98 -33.5t68.5 -55.5t44.5 -69.5t25.5 -86t12 -96t2.5 -106v-739h-356v739q0 109 -28.5 150t-111.5 41q-90 0 -249 -66v-864h-357zM494 1292l270 299h403l-340 -299h-333z" />
<glyph unicode="&#x145;" horiz-adv-x="1589" d="M150 0v1522h391l444 -777q59 -105 109 -215h4q-6 108 -6 261v731h348v-1522h-398l-440 791q-60 107 -106 208h-4q6 -240 6 -245v-754h-348zM506 -416l137 287h369l-195 -287h-311z" />
<glyph unicode="&#x146;" horiz-adv-x="1374" d="M139 0v1167h336v-94q201 125 383 125q74 0 132 -12.5t98 -33.5t68.5 -55.5t44.5 -69.5t25.5 -86t12 -96t2.5 -106v-739h-356v739q0 109 -28.5 150t-111.5 41q-90 0 -249 -66v-864h-357zM383 -416l137 287h369l-195 -287h-311z" />
<glyph unicode="&#x147;" horiz-adv-x="1589" d="M150 0v1522h391l444 -777q59 -105 109 -215h4q-6 108 -6 261v731h348v-1522h-398l-440 791q-60 107 -106 208h-4q6 -240 6 -245v-754h-348zM307 1915h311l179 -168l176 168h313l-276 -299h-426z" />
<glyph unicode="&#x148;" horiz-adv-x="1374" d="M139 0v1167h336v-94q201 125 383 125q74 0 132 -12.5t98 -33.5t68.5 -55.5t44.5 -69.5t25.5 -86t12 -96t2.5 -106v-739h-356v739q0 109 -28.5 150t-111.5 41q-90 0 -249 -66v-864h-357zM209 1591h313l176 -168l179 168h311l-277 -299h-426z" />
<glyph unicode="&#x149;" horiz-adv-x="1613" d="M-20 1071l122 524h320l-195 -524h-247zM379 0v1167h336v-94q201 125 383 125q74 0 132 -12.5t98 -33.5t68.5 -55.5t44.5 -69.5t25.5 -86t12 -96t2.5 -106v-739h-357v739q0 109 -28 150t-111 41q-91 0 -250 -66v-864h-356z" />
<glyph unicode="&#x14a;" horiz-adv-x="1589" d="M150 0v1522h391l444 -705q52 -89 109 -217h4q-8 99 -8 262v660h350v-1569q0 -209 -96.5 -301t-309.5 -92q-122 0 -203 18v229h111q73 0 94 27.5t21 104.5v114l-455 738q-44 71 -106 208h-7q7 -140 7 -245v-754h-346z" />
<glyph unicode="&#x14b;" horiz-adv-x="1374" d="M139 0v1167h334v-94q201 125 391 125q72 0 129 -12.5t96.5 -33.5t67.5 -55.5t44 -70t25.5 -86t12 -95.5t2.5 -106v-809q0 -207 -86.5 -290.5t-288.5 -83.5q-121 0 -204 18v225q78 -4 118 -4q65 0 85 27.5t20 107.5v809q0 109 -28.5 150t-111.5 41q-91 0 -249 -66v-864 h-357z" />
<glyph unicode="&#x14c;" horiz-adv-x="1525" d="M100 682v156q0 716 662 716q663 0 663 -716v-156q0 -717 -663 -717q-662 0 -662 717zM344 1655v205h838v-205h-838zM477 684q0 -119 19 -202t57 -131t89 -68.5t120 -20.5q94 0 155 37t96.5 132t35.5 253v154q0 229 -71 324t-216 95q-94 0 -155 -38t-95.5 -132t-34.5 -249 v-154z" />
<glyph unicode="&#x14d;" horiz-adv-x="1314" d="M96 518v129q0 551 559 551q564 0 564 -551v-129q0 -549 -564 -549q-559 0 -559 549zM238 1337v203h837v-203h-837zM451 518q0 -153 47.5 -215.5t156.5 -62.5q111 0 159 62.5t48 215.5v129q0 153 -48.5 216t-158.5 63q-109 0 -156.5 -63t-47.5 -216v-129z" />
<glyph unicode="&#x14e;" horiz-adv-x="1525" d="M100 682v156q0 716 662 716q663 0 663 -716v-156q0 -717 -663 -717q-662 0 -662 717zM338 1931h207q11 -87 67.5 -122t149.5 -35q62 0 105.5 13t74.5 49t39 95h207q-10 -85 -48.5 -149t-97.5 -101.5t-129.5 -56t-150.5 -18.5t-149.5 18.5t-128.5 56t-97.5 102 t-48.5 148.5zM477 684q0 -119 19 -202t57 -131t89 -68.5t120 -20.5q94 0 155 37t96.5 132t35.5 253v154q0 229 -71 324t-216 95q-94 0 -155 -38t-95.5 -132t-34.5 -249v-154z" />
<glyph unicode="&#x14f;" horiz-adv-x="1314" d="M96 518v129q0 551 559 551q564 0 564 -551v-129q0 -549 -564 -549q-559 0 -559 549zM231 1614h207q13 -87 69 -122.5t150 -35.5t150.5 35.5t69.5 122.5h204q-10 -85 -48 -149t-97 -102t-129 -56.5t-150 -18.5t-150.5 18.5t-129.5 56.5t-97.5 102t-48.5 149zM451 518 q0 -153 47.5 -215.5t156.5 -62.5q111 0 159 62.5t48 215.5v129q0 153 -48.5 216t-158.5 63q-109 0 -156.5 -63t-47.5 -216v-129z" />
<glyph unicode="&#x150;" horiz-adv-x="1525" d="M100 682v156q0 716 662 716q663 0 663 -716v-156q0 -717 -663 -717q-662 0 -662 717zM305 1614l268 299h379l-340 -299h-307zM477 684q0 -119 19 -202t57 -131t89 -68.5t120 -20.5q94 0 155 37t96.5 132t35.5 253v154q0 229 -71 324t-216 95q-94 0 -155 -38t-95.5 -132 t-34.5 -249v-154zM870 1614l271 299h377l-340 -299h-308z" />
<glyph unicode="&#x151;" horiz-adv-x="1314" d="M96 518v129q0 551 559 551q564 0 564 -551v-129q0 -549 -564 -549q-559 0 -559 549zM227 1292l271 299h379l-340 -299h-310zM451 518q0 -153 47.5 -215.5t156.5 -62.5q111 0 159 62.5t48 215.5v129q0 153 -48.5 216t-158.5 63q-109 0 -156.5 -63t-47.5 -216v-129z M793 1292l272 299h377l-340 -299h-309z" />
<glyph unicode="&#x152;" horiz-adv-x="2080" d="M94 678v162q0 155 31.5 276.5t88 203t139 135t179 76.5t213.5 23q146 0 334 -32h908v-279h-654v-332h609v-264h-609v-371h654v-276h-906q-216 -35 -336 -35q-651 0 -651 713zM471 678q0 -117 19 -198.5t58 -129.5t92 -69t126 -21q85 0 190 14v969q-109 14 -190 14 q-150 0 -222.5 -93.5t-72.5 -323.5v-162z" />
<glyph unicode="&#x153;" horiz-adv-x="2076" d="M94 518v129q0 551 559 551q257 0 387 -127q130 127 385 127q127 0 225 -32.5t159.5 -86.5t101.5 -131t55.5 -158t15.5 -176v-127h-765v-16q0 -53 3.5 -85t18.5 -67t43.5 -53.5t79 -30.5t125.5 -12q243 0 438 23v-228q-74 -19 -205 -33t-268 -14q-285 0 -414 123 q-137 -125 -385 -125q-559 0 -559 549zM449 518q0 -153 47.5 -215.5t156.5 -62.5q111 0 159 62.5t48 215.5v129q0 153 -48.5 217t-158.5 64q-109 0 -156.5 -64t-47.5 -217v-129zM1217 682h417v16q0 43 -4.5 76t-17.5 66.5t-35.5 55.5t-61 36t-90.5 14q-63 0 -106 -19 t-64 -54t-29 -71.5t-9 -84.5v-35z" />
<glyph unicode="&#x154;" horiz-adv-x="1470" d="M150 0v1522q342 18 491 18q88 0 160.5 -5t147 -19t132 -37.5t109.5 -61t85.5 -88t53 -121.5t19.5 -159v-15q0 -162 -61 -262t-181 -158l340 -614h-387l-311 543h-230v-543h-368zM500 1616l268 299h406l-343 -299h-331zM518 809h139q173 0 246.5 48.5t73.5 170.5v14 q0 124 -73.5 167.5t-250.5 43.5q-86 0 -135 -2v-442z" />
<glyph unicode="&#x155;" horiz-adv-x="890" d="M139 0v1167h332v-96q140 127 385 127v-299q-203 0 -360 -53v-846h-357zM315 1292l271 299h403l-340 -299h-334z" />
<glyph unicode="&#x156;" horiz-adv-x="1470" d="M150 0v1522q342 18 491 18q88 0 160.5 -5t147 -19t132 -37.5t109.5 -61t85.5 -88t53 -121.5t19.5 -159v-15q0 -162 -61 -262t-181 -158l340 -614h-387l-311 543h-230v-543h-368zM459 -416l139 287h369l-197 -287h-311zM518 809h139q173 0 246.5 48.5t73.5 170.5v14 q0 124 -73.5 167.5t-250.5 43.5q-86 0 -135 -2v-442z" />
<glyph unicode="&#x157;" horiz-adv-x="890" d="M131 -416l137 287h369l-195 -287h-311zM139 0v1167h332v-96q140 127 385 127v-299q-203 0 -360 -53v-846h-357z" />
<glyph unicode="&#x158;" horiz-adv-x="1470" d="M150 0v1522q342 18 491 18q88 0 160.5 -5t147 -19t132 -37.5t109.5 -61t85.5 -88t53 -121.5t19.5 -159v-15q0 -162 -61 -262t-181 -158l340 -614h-387l-311 543h-230v-543h-368zM238 1913h311l178 -168l176 168h314l-277 -299h-426zM518 809h139q173 0 246.5 48.5 t73.5 170.5v14q0 124 -73.5 167.5t-250.5 43.5q-86 0 -135 -2v-442z" />
<glyph unicode="&#x159;" horiz-adv-x="890" d="M-4 1591h311l178 -168l177 168h313l-277 -299h-426zM139 0v1167h332v-96q140 127 385 127v-299q-203 0 -360 -53v-846h-357z" />
<glyph unicode="&#x15a;" horiz-adv-x="1323" d="M94 1135q0 220 148.5 319.5t445.5 99.5q236 0 465 -51v-246q-294 25 -444 25q-123 0 -180.5 -30t-57.5 -105q0 -58 33.5 -90.5t138.5 -75.5l215 -88q197 -81 285 -185.5t88 -279.5q0 -232 -151 -347.5t-433 -115.5q-146 0 -291 14.5t-223 34.5v250q314 -24 471 -24 q128 0 186 39.5t58 126.5q0 64 -36 100t-144 82l-222 94q-87 37 -147.5 75t-109 91t-72 124t-23.5 163zM444 1616l271 299h405l-342 -299h-334z" />
<glyph unicode="&#x15b;" horiz-adv-x="1112" d="M86 866q0 94 32.5 159.5t97 103t149.5 53.5t202 16q122 0 238 -14t176 -33v-223q-232 20 -381 20q-40 0 -62.5 -1t-47 -5t-36 -12t-19 -21.5t-7.5 -34.5q0 -43 29 -63t131 -59l102 -37q195 -70 271.5 -152.5t76.5 -220.5q0 -188 -126.5 -279.5t-389.5 -91.5 q-113 0 -237 14.5t-181 30.5v217q14 -1 85 -6.5t157.5 -10.5t157.5 -5q105 0 147.5 24.5t42.5 79.5q0 50 -32.5 73t-151.5 67l-94 34q-171 66 -250.5 152t-79.5 225zM375 1292l270 299h404l-340 -299h-334z" />
<glyph unicode="&#x15c;" horiz-adv-x="1323" d="M94 1135q0 220 148.5 319.5t445.5 99.5q236 0 465 -51v-246q-294 25 -444 25q-123 0 -180.5 -30t-57.5 -105q0 -58 33.5 -90.5t138.5 -75.5l215 -88q197 -81 285 -185.5t88 -279.5q0 -232 -151 -347.5t-433 -115.5q-146 0 -291 14.5t-223 34.5v250q314 -24 471 -24 q128 0 186 39.5t58 126.5q0 64 -36 100t-144 82l-222 94q-87 37 -147.5 75t-109 91t-72 124t-23.5 163zM162 1616l276 299h426l277 -299h-312l-178 168l-176 -168h-313z" />
<glyph unicode="&#x15d;" horiz-adv-x="1112" d="M63 1292l277 299h426l276 -299h-311l-178 168l-176 -168h-314zM86 866q0 94 32.5 159.5t97 103t149.5 53.5t202 16q122 0 238 -14t176 -33v-223q-232 20 -381 20q-40 0 -62.5 -1t-47 -5t-36 -12t-19 -21.5t-7.5 -34.5q0 -43 29 -63t131 -59l102 -37q195 -70 271.5 -152.5 t76.5 -220.5q0 -188 -126.5 -279.5t-389.5 -91.5q-113 0 -237 14.5t-181 30.5v217q14 -1 85 -6.5t157.5 -10.5t157.5 -5q105 0 147.5 24.5t42.5 79.5q0 50 -32.5 73t-151.5 67l-94 34q-171 66 -250.5 152t-79.5 225z" />
<glyph unicode="&#x15e;" horiz-adv-x="1323" d="M94 1135q0 220 148.5 319.5t445.5 99.5q236 0 465 -51v-246q-294 25 -444 25q-123 0 -180.5 -30t-57.5 -105q0 -58 33.5 -90.5t138.5 -75.5l215 -88q197 -81 285 -185.5t88 -279.5q0 -232 -151 -347.5t-433 -115.5q-146 0 -291 14.5t-223 34.5v250q314 -24 471 -24 q128 0 186 39.5t58 126.5q0 64 -36 100t-144 82l-222 94q-87 37 -147.5 75t-109 91t-72 124t-23.5 163zM311 -416l215 287h379l-268 -287h-326z" />
<glyph unicode="&#x15f;" horiz-adv-x="1112" d="M86 866q0 94 32.5 159.5t97 103t149.5 53.5t202 16q122 0 238 -14t176 -33v-223q-232 20 -381 20q-40 0 -62.5 -1t-47 -5t-36 -12t-19 -21.5t-7.5 -34.5q0 -43 29 -63t131 -59l102 -37q195 -70 271.5 -152.5t76.5 -220.5q0 -188 -126.5 -279.5t-389.5 -91.5 q-113 0 -237 14.5t-181 30.5v217q14 -1 85 -6.5t157.5 -10.5t157.5 -5q105 0 147.5 24.5t42.5 79.5q0 50 -32.5 73t-151.5 67l-94 34q-171 66 -250.5 152t-79.5 225zM193 -416l215 287h380l-270 -287h-325z" />
<glyph unicode="&#x160;" horiz-adv-x="1323" d="M94 1135q0 220 148.5 319.5t445.5 99.5q236 0 465 -51v-246q-294 25 -444 25q-123 0 -180.5 -30t-57.5 -105q0 -58 33.5 -90.5t138.5 -75.5l215 -88q197 -81 285 -185.5t88 -279.5q0 -232 -151 -347.5t-433 -115.5q-146 0 -291 14.5t-223 34.5v250q314 -24 471 -24 q128 0 186 39.5t58 126.5q0 64 -36 100t-144 82l-222 94q-87 37 -147.5 75t-109 91t-72 124t-23.5 163zM172 1913h313l177 -168l178 168h311l-274 -299h-428z" />
<glyph unicode="&#x161;" horiz-adv-x="1112" d="M72 1591h313l176 -168l178 168h312l-275 -299h-428zM86 866q0 94 32.5 159.5t97 103t149.5 53.5t202 16q122 0 238 -14t176 -33v-223q-232 20 -381 20q-40 0 -62.5 -1t-47 -5t-36 -12t-19 -21.5t-7.5 -34.5q0 -43 29 -63t131 -59l102 -37q195 -70 271.5 -152.5 t76.5 -220.5q0 -188 -126.5 -279.5t-389.5 -91.5q-113 0 -237 14.5t-181 30.5v217q14 -1 85 -6.5t157.5 -10.5t157.5 -5q105 0 147.5 24.5t42.5 79.5q0 50 -32.5 73t-151.5 67l-94 34q-171 66 -250.5 152t-79.5 225z" />
<glyph unicode="&#x162;" horiz-adv-x="1372" d="M53 1243v279h1266v-279h-440v-1243h-385v1243h-441zM381 -416l137 287h369l-195 -287h-311z" />
<glyph unicode="&#x163;" horiz-adv-x="925" d="M43 932v235h203v295h356v-295h262v-254h-262v-583q0 -75 15.5 -96t80.5 -21q106 0 164 8v-219q-128 -33 -260 -33q-188 0 -272 82.5t-84 274.5v587zM225 -416l137 287h369l-194 -287h-312z" />
<glyph unicode="&#x164;" horiz-adv-x="1372" d="M53 1243v279h1266v-279h-440v-1243h-385v1243h-441zM197 1913h311l178 -168l176 168h314l-277 -299h-426z" />
<glyph unicode="&#x165;" horiz-adv-x="993" d="M43 932v235h203v295h356v-295h262v-254h-262v-583q0 -75 15.5 -96t80.5 -21q106 0 164 8v-219q-128 -33 -260 -33q-188 0 -272 82.5t-84 274.5v587zM696 1270l68 325h274l-137 -325h-205z" />
<glyph unicode="&#x166;" horiz-adv-x="1372" d="M53 1243v279h1266v-279h-440v-299h383v-227h-383v-717h-385v717h-381v227h381v299h-441z" />
<glyph unicode="&#x167;" horiz-adv-x="925" d="M45 604v207h203v139l-203 11v206h203v285h356v-285h260v-217h-260v-139h260v-219h-260v-262q0 -78 15.5 -99.5t80.5 -21.5q39 0 162 6v-213q-112 -31 -260 -31q-188 0 -271 81.5t-83 273.5v266z" />
<glyph unicode="&#x168;" horiz-adv-x="1562" d="M139 616v906h379v-895q0 -207 56 -290t208 -83q153 0 210 83.5t57 289.5v895h374v-906q0 -324 -165.5 -487.5t-475.5 -163.5q-311 0 -477 163.5t-166 487.5zM319 1616v51q0 146 68.5 214.5t183.5 68.5q52 0 96 -13t107 -47l96 -53q77 -43 117 -43q37 0 50.5 22t13.5 74 v49h200v-49q0 -148 -65 -216t-178 -68q-95 0 -215 63l-97 53q-68 41 -110 41q-35 0 -49.5 -23.5t-14.5 -72.5v-51h-203z" />
<glyph unicode="&#x169;" d="M137 428v739h357v-739q0 -109 27.5 -149.5t111.5 -40.5q90 0 250 65v864h356v-1167h-336v94q-214 -125 -409 -125q-92 0 -159 26t-104.5 66.5t-59.5 104t-28 123t-6 139.5zM225 1294v49q0 147 68.5 216t183.5 69q53 0 96.5 -12.5t106.5 -46.5l96 -53q77 -43 117 -43 q37 0 50 22t13 74v49h199v-49q0 -148 -64.5 -216.5t-177.5 -68.5q-97 0 -215 62l-96 53q-72 43 -110 43q-36 0 -50 -24t-14 -75v-49h-203z" />
<glyph unicode="&#x16a;" horiz-adv-x="1562" d="M139 616v906h379v-895q0 -207 56 -290t208 -83q153 0 210 83.5t57 289.5v895h374v-906q0 -324 -165.5 -487.5t-475.5 -163.5q-311 0 -477 163.5t-166 487.5zM365 1655v205h835v-205h-835z" />
<glyph unicode="&#x16b;" d="M137 428v739h357v-739q0 -109 27.5 -149.5t111.5 -40.5q90 0 250 65v864h356v-1167h-336v94q-214 -125 -409 -125q-92 0 -159 26t-104.5 66.5t-59.5 104t-28 123t-6 139.5zM272 1337v203h838v-203h-838z" />
<glyph unicode="&#x16c;" horiz-adv-x="1562" d="M139 616v906h379v-895q0 -207 56 -290t208 -83q153 0 210 83.5t57 289.5v895h374v-906q0 -324 -165.5 -487.5t-475.5 -163.5q-311 0 -477 163.5t-166 487.5zM356 1921h209q11 -87 67.5 -122.5t149.5 -35.5q94 0 150 35.5t69 122.5h207q-10 -85 -48.5 -149t-97.5 -102 t-129.5 -56.5t-150.5 -18.5t-150.5 18.5t-129.5 56.5t-97.5 102t-48.5 149z" />
<glyph unicode="&#x16d;" d="M137 428v739h357v-739q0 -109 27.5 -149.5t111.5 -40.5q90 0 250 65v864h356v-1167h-336v94q-214 -125 -409 -125q-92 0 -159 26t-104.5 66.5t-59.5 104t-28 123t-6 139.5zM266 1614h207q11 -87 67.5 -122.5t149.5 -35.5q95 0 151.5 35.5t69.5 122.5h205 q-10 -85 -48.5 -149t-97.5 -102t-129.5 -56.5t-150.5 -18.5q-79 0 -149 18.5t-129 56.5t-97.5 102.5t-48.5 148.5z" />
<glyph unicode="&#x16e;" horiz-adv-x="1562" d="M139 616v906h379v-895q0 -207 56 -290t208 -83q153 0 210 83.5t57 289.5v895h374v-906q0 -324 -165.5 -487.5t-475.5 -163.5q-311 0 -477 163.5t-166 487.5zM489 1835q0 118 82.5 184t212.5 66q128 0 208.5 -66t80.5 -184q0 -119 -80 -184.5t-209 -65.5q-131 0 -213 65.5 t-82 184.5zM670 1835q0 -49 30.5 -73.5t83.5 -24.5q52 0 82.5 24.5t30.5 73.5q0 98 -113 98q-52 0 -83 -24t-31 -74z" />
<glyph unicode="&#x16f;" d="M137 428v739h357v-739q0 -109 27.5 -149.5t111.5 -40.5q90 0 250 65v864h356v-1167h-336v94q-214 -125 -409 -125q-92 0 -159 26t-104.5 66.5t-59.5 104t-28 123t-6 139.5zM401 1511q0 119 82 184.5t213 65.5q129 0 209 -65.5t80 -184.5q0 -118 -80 -182.5t-209 -64.5 q-131 0 -213 64.5t-82 182.5zM582 1513q0 -98 114 -98q51 0 82 24t31 74t-31 74.5t-82 24.5q-114 0 -114 -99z" />
<glyph unicode="&#x170;" horiz-adv-x="1562" d="M139 616v906h379v-895q0 -207 56 -290t208 -83q153 0 210 83.5t57 289.5v895h374v-906q0 -324 -165.5 -487.5t-475.5 -163.5q-311 0 -477 163.5t-166 487.5zM326 1616l270 299h379l-340 -299h-309zM891 1616l272 299h377l-340 -299h-309z" />
<glyph unicode="&#x171;" d="M137 428v739h357v-739q0 -109 27.5 -149.5t111.5 -40.5q90 0 250 65v864h356v-1167h-336v94q-214 -125 -409 -125q-92 0 -159 26t-104.5 66.5t-59.5 104t-28 123t-6 139.5zM229 1292l271 299h379l-342 -299h-308zM795 1292l272 299h377l-342 -299h-307z" />
<glyph unicode="&#x172;" horiz-adv-x="1562" d="M139 616v906h379v-895q0 -207 56 -290t208 -83q153 0 210 83.5t57 289.5v895h374v-906q0 -267 -112 -424.5t-326 -205.5q-194 -84 -194 -168q0 -37 25 -54.5t83 -17.5q39 0 172 10v-166q-114 -34 -276 -34q-151 0 -230.5 51t-79.5 151q0 59 39 115.5t115 101.5 q-243 34 -371.5 195t-128.5 446z" />
<glyph unicode="&#x173;" d="M137 428v739h357v-739q0 -109 27.5 -149.5t111.5 -40.5q90 0 250 65v864h356v-1167q-86 -31 -143 -58t-86.5 -49t-40.5 -39.5t-11 -35.5q0 -36 25.5 -54t85.5 -18q37 0 170 10v-166q-114 -34 -276 -34q-149 0 -228.5 51t-79.5 151q0 71 65 139.5t183 114.5v82 q-214 -125 -409 -125q-92 0 -159 26t-104.5 66.5t-59.5 104t-28 123t-6 139.5z" />
<glyph unicode="&#x174;" horiz-adv-x="2037" d="M76 1522h381l125 -832q14 -100 36 -291h9q7 33 27.5 128t31.5 143l137 565h396l137 -569q31 -131 59 -267h8q8 91 35 291l127 832h377l-254 -1522h-465l-178 723q-17 71 -43 209h-6q-26 -138 -43 -209l-176 -723h-467zM530 1616l277 299h428l274 -299h-311l-178 168 l-176 -168h-314z" />
<glyph unicode="&#x175;" horiz-adv-x="1916" d="M57 1167h361l106 -577q32 -187 37 -279h8q48 200 72 279l129 407h377l129 -407q18 -55 44 -159l30 -120h8q4 73 35 281l106 575h361l-246 -1167h-440l-156 500q-41 135 -55 233h-9q-14 -104 -57 -233l-156 -500h-438zM469 1292l276 299h426l277 -299h-313l-177 168 l-178 -168h-311z" />
<glyph unicode="&#x176;" horiz-adv-x="1445" d="M29 1522h391l205 -404q54 -114 96 -233h10q23 69 100 233l205 404h381l-508 -973v-549h-372v549zM238 1616l276 299h426l274 -299h-311l-178 168l-176 -168h-311z" />
<glyph unicode="&#x177;" horiz-adv-x="1304" d="M47 1167h383l172 -600q15 -57 38.5 -165.5t31.5 -143.5h4q37 194 67 311l156 598h363l-371 -1175q-46 -160 -106 -252.5t-152 -137t-230 -44.5q-199 0 -329 26v228q125 -5 221 -5q63 0 94.5 30t61.5 112l20 63zM180 1292l277 299h428l274 -299h-311l-178 168l-176 -168 h-314z" />
<glyph unicode="&#x178;" horiz-adv-x="1445" d="M29 1522h391l205 -404q54 -114 96 -233h10q23 69 100 233l205 404h381l-508 -973v-549h-372v549zM322 1638v260h286v-260h-286zM844 1638v260h284v-260h-284z" />
<glyph unicode="&#x179;" horiz-adv-x="1347" d="M104 0v291l678 946h-659v285h1102v-295l-676 -942h694v-285h-1139zM498 1616l270 299h403l-340 -299h-333z" />
<glyph unicode="&#x17a;" horiz-adv-x="1122" d="M82 0v262l551 649h-533v256h932v-266l-547 -649h549v-252h-952zM397 1292l271 299h403l-340 -299h-334z" />
<glyph unicode="&#x17b;" horiz-adv-x="1347" d="M104 0v291l678 946h-659v285h1102v-295l-676 -942h694v-285h-1139zM489 1638v260h367v-260h-367z" />
<glyph unicode="&#x17c;" horiz-adv-x="1122" d="M82 0v262l551 649h-533v256h932v-266l-547 -649h549v-252h-952zM401 1333v260h367v-260h-367z" />
<glyph unicode="&#x17d;" horiz-adv-x="1347" d="M104 0v291l678 946h-659v285h1102v-295l-676 -942h694v-285h-1139zM209 1915h311l176 -168l178 168h312l-275 -299h-426z" />
<glyph unicode="&#x17e;" horiz-adv-x="1122" d="M82 0v262l551 649h-533v256h932v-266l-547 -649h549v-252h-952zM104 1591h314l176 -168l178 168h311l-274 -299h-428z" />
<glyph unicode="&#x192;" horiz-adv-x="1355" d="M100 -299l27 205q99 -6 152 -6q68 0 98 23.5t43 107.5l88 649h-270l32 246h271l39 276q11 82 36.5 143.5t61 101t85 64t103.5 34t121 9.5q136 0 268 -32l-24 -203q-108 6 -148 6q-74 0 -105 -25t-42 -108l-37 -266h301l-31 -246h-305l-88 -660q-13 -101 -48 -171 t-89.5 -108t-118 -54.5t-145.5 -16.5q-124 0 -275 31z" />
<glyph unicode="&#x1fa;" horiz-adv-x="1531" d="M43 0l424 1522h594l428 -1522h-402l-108 383h-432l-111 -383h-393zM473 1806q0 119 82 184.5t213 65.5q129 0 209 -65.5t80 -184.5q0 -118 -80 -182.5t-209 -64.5q-131 0 -213 64.5t-82 182.5zM578 2089l268 299h405l-342 -299h-331zM600 657h328l-111 404 q-30 125 -47 233h-14q-21 -137 -47 -233zM653 1808q0 -51 31 -75.5t84 -24.5q52 0 82.5 25t30.5 75t-30.5 74.5t-82.5 24.5t-83.5 -24.5t-31.5 -74.5z" />
<glyph unicode="&#x1fb;" horiz-adv-x="1247" d="M86 303v47q0 66 14.5 117.5t39.5 87.5t66 62.5t85 41.5t106.5 24t121 12t136.5 3h109v64q0 75 -16 109.5t-60 48.5t-139 14q-181 0 -377 -21v213q65 25 192 48.5t259 23.5q273 0 385 -99t112 -337v-762h-325v76q-66 -44 -162.5 -75.5t-204.5 -31.5q-167 0 -254.5 84.5 t-87.5 249.5zM350 1491q0 119 82.5 185.5t212.5 66.5q129 0 209 -66t80 -186q0 -118 -80 -183t-209 -65q-131 0 -213 65t-82 183zM426 315q0 -65 34.5 -91.5t98.5 -26.5q62 0 122.5 18t94.5 37v262h-119q-130 0 -180.5 -28.5t-50.5 -123.5v-47zM471 1774l270 299h404 l-340 -299h-334zM530 1493q0 -49 31 -73.5t84 -24.5q50 0 81.5 24.5t31.5 73.5q0 50 -31 74t-82 24q-115 0 -115 -98z" />
<glyph unicode="&#x1fc;" horiz-adv-x="2111" d="M82 0l412 1522h1521v-279h-653v-332h610v-264h-610v-371h653v-276h-1036v383h-399l-109 -383h-389zM633 655h346v635h-184q-9 -36 -26 -111.5t-26 -111.5zM1018 1616l270 299h404l-340 -299h-334z" />
<glyph unicode="&#x1fd;" horiz-adv-x="1972" d="M86 303v47q0 66 14.5 117.5t39.5 87.5t66 62.5t85 41.5t106.5 24t121 12t136.5 3h109v64q0 72 -14.5 106t-59.5 50t-139 16q-153 0 -379 -19v211q65 25 191.5 48.5t259.5 23.5q140 0 222 -22.5t136 -69.5q133 90 346 90q127 0 225 -32.5t159.5 -86t101.5 -130 t55.5 -157.5t15.5 -176v-127h-766v-16q0 -37 2 -62t8 -53.5t17.5 -46.5t31 -36t48.5 -28t70 -16t94 -6q245 0 440 23v-228q-76 -19 -206 -33t-267 -14q-322 0 -451 138q-111 -76 -222.5 -107t-254.5 -31q-167 0 -254.5 83.5t-87.5 248.5zM426 315q0 -65 34 -91.5t99 -26.5 q60 0 120.5 17.5t96.5 37.5v262h-119q-130 0 -180.5 -28.5t-50.5 -123.5v-47zM817 1292l268 299h406l-342 -299h-332zM1120 682h416v16q0 55 -7.5 94t-28.5 76t-64.5 56.5t-108.5 19.5q-52 0 -90 -14t-60 -36t-35 -55t-17.5 -66t-4.5 -75v-16z" />
<glyph unicode="&#x1fe;" horiz-adv-x="1525" d="M53 0l160 211q-113 177 -113 471v156q0 716 662 716q242 0 393 -94l47 62h283l-168 -224q108 -171 108 -460v-156q0 -717 -663 -717q-231 0 -387 90l-41 -55h-281zM477 684q0 -64 6 -117l469 623q-67 67 -190 67q-94 0 -155 -38t-95.5 -132t-34.5 -249v-154zM545 1616 l270 299h406l-342 -299h-334zM578 324q65 -62 184 -62q94 0 155 37t96.5 132t35.5 253v154q0 22 -5 100z" />
<glyph unicode="&#x1ff;" horiz-adv-x="1314" d="M47 -31l148 185q-99 135 -99 364v129q0 551 559 551q200 0 328 -70l57 70h205l-139 -170q113 -137 113 -381v-129q0 -549 -564 -549q-204 0 -342 78l-61 -78h-205zM432 1292l270 299h406l-342 -299h-334zM451 469l337 418q-48 39 -133 39q-109 0 -156.5 -63t-47.5 -216 v-178zM510 289q46 -49 145 -49q111 0 159 62.5t48 215.5v129q0 28 -4 74z" />
<glyph unicode="&#x218;" horiz-adv-x="1323" d="M94 1135q0 220 148.5 319.5t445.5 99.5q236 0 465 -51v-246q-294 25 -444 25q-123 0 -180.5 -30t-57.5 -105q0 -58 33.5 -90.5t138.5 -75.5l215 -88q197 -81 285 -185.5t88 -279.5q0 -232 -151 -347.5t-433 -115.5q-146 0 -291 14.5t-223 34.5v250q314 -24 471 -24 q128 0 186 39.5t58 126.5q0 64 -36 100t-144 82l-222 94q-87 37 -147.5 75t-109 91t-72 124t-23.5 163zM379 -416l137 287h369l-195 -287h-311z" />
<glyph unicode="&#x219;" horiz-adv-x="1112" d="M86 866q0 94 32.5 159.5t97 103t149.5 53.5t202 16q122 0 238 -14t176 -33v-223q-232 20 -381 20q-40 0 -62.5 -1t-47 -5t-36 -12t-19 -21.5t-7.5 -34.5q0 -43 29 -63t131 -59l102 -37q195 -70 271.5 -152.5t76.5 -220.5q0 -188 -126.5 -279.5t-389.5 -91.5 q-113 0 -237 14.5t-181 30.5v217q14 -1 85 -6.5t157.5 -10.5t157.5 -5q105 0 147.5 24.5t42.5 79.5q0 50 -32.5 73t-151.5 67l-94 34q-171 66 -250.5 152t-79.5 225zM242 -416l139 287h369l-197 -287h-311z" />
<glyph unicode="&#x21a;" horiz-adv-x="1372" d="M53 1243v279h1266v-279h-440v-1243h-385v1243h-441zM381 -416l137 287h369l-195 -287h-311z" />
<glyph unicode="&#x21b;" horiz-adv-x="925" d="M43 932v235h203v295h356v-295h262v-254h-262v-583q0 -75 15.5 -96t80.5 -21q106 0 164 8v-219q-128 -33 -260 -33q-188 0 -272 82.5t-84 274.5v587zM225 -416l137 287h369l-194 -287h-312z" />
<glyph unicode="&#x2c6;" horiz-adv-x="1116" d="M68 1292l276 299h426l277 -299h-312l-178 168l-176 -168h-313z" />
<glyph unicode="&#x2da;" horiz-adv-x="911" d="M164 1511q0 119 82 184.5t213 65.5q129 0 209 -65.5t80 -184.5q0 -118 -80 -182.5t-209 -64.5q-131 0 -213 64.5t-82 182.5zM344 1513q0 -98 115 -98q51 0 81.5 24t30.5 74t-31 74.5t-81 24.5q-115 0 -115 -99z" />
<glyph unicode="&#x2dc;" horiz-adv-x="1056" d="M68 1294v49q0 148 67 216.5t182 68.5q53 0 96.5 -12.5t106.5 -46.5l98 -53q74 -43 117 -43q36 0 49 22t13 74v49h200v-49q0 -148 -65 -216.5t-178 -68.5q-97 0 -215 62l-97 53q-72 43 -110 43q-35 0 -49.5 -24.5t-14.5 -74.5v-49h-200z" />
<glyph unicode="&#x1e80;" horiz-adv-x="2037" d="M76 1522h381l125 -832q14 -100 36 -291h9q7 33 27.5 128t31.5 143l137 565h396l137 -569q31 -131 59 -267h8q8 91 35 291l127 832h377l-254 -1522h-465l-178 723q-17 71 -43 209h-6q-26 -138 -43 -209l-176 -723h-467zM573 1915h406l268 -299h-332z" />
<glyph unicode="&#x1e81;" horiz-adv-x="1916" d="M57 1167h361l106 -577q32 -187 37 -279h8q48 200 72 279l129 407h377l129 -407q18 -55 44 -159l30 -120h8q4 73 35 281l106 575h361l-246 -1167h-440l-156 500q-41 135 -55 233h-9q-14 -104 -57 -233l-156 -500h-438zM502 1591h405l269 -299h-332z" />
<glyph unicode="&#x1e82;" horiz-adv-x="2037" d="M76 1522h381l125 -832q14 -100 36 -291h9q7 33 27.5 128t31.5 143l137 565h396l137 -569q31 -131 59 -267h8q8 91 35 291l127 832h377l-254 -1522h-465l-178 723q-17 71 -43 209h-6q-26 -138 -43 -209l-176 -723h-467zM821 1616l271 299h405l-342 -299h-334z" />
<glyph unicode="&#x1e83;" horiz-adv-x="1916" d="M57 1167h361l106 -577q32 -187 37 -279h8q48 200 72 279l129 407h377l129 -407q18 -55 44 -159l30 -120h8q4 73 35 281l106 575h361l-246 -1167h-440l-156 500q-41 135 -55 233h-9q-14 -104 -57 -233l-156 -500h-438zM762 1292l268 299h406l-342 -299h-332z" />
<glyph unicode="&#x1e84;" horiz-adv-x="2037" d="M76 1522h381l125 -832q14 -100 36 -291h9q7 33 27.5 128t31.5 143l137 565h396l137 -569q31 -131 59 -267h8q8 91 35 291l127 832h377l-254 -1522h-465l-178 723q-17 71 -43 209h-6q-26 -138 -43 -209l-176 -723h-467zM616 1638v260h287v-260h-287zM1137 1638v260h286 v-260h-286z" />
<glyph unicode="&#x1e85;" horiz-adv-x="1916" d="M57 1167h361l106 -577q32 -187 37 -279h8q48 200 72 279l129 407h377l129 -407q18 -55 44 -159l30 -120h8q4 73 35 281l106 575h361l-246 -1167h-440l-156 500q-41 135 -55 233h-9q-14 -104 -57 -233l-156 -500h-438zM553 1321v260h289v-260h-289zM1075 1321v260h287 v-260h-287z" />
<glyph unicode="&#x1ef2;" horiz-adv-x="1445" d="M29 1522h391l205 -404q54 -114 96 -233h10q23 69 100 233l205 404h381l-508 -973v-549h-372v549zM285 1913h405l268 -299h-331z" />
<glyph unicode="&#x1ef3;" horiz-adv-x="1304" d="M47 1167h383l172 -600q15 -57 38.5 -165.5t31.5 -143.5h4q37 194 67 311l156 598h363l-371 -1175q-46 -160 -106 -252.5t-152 -137t-230 -44.5q-199 0 -329 26v228q125 -5 221 -5q63 0 94.5 30t61.5 112l20 63zM233 1591h406l270 -299h-334z" />
<glyph unicode="&#x2000;" horiz-adv-x="1194" />
<glyph unicode="&#x2001;" horiz-adv-x="2388" />
<glyph unicode="&#x2002;" horiz-adv-x="1194" />
<glyph unicode="&#x2003;" horiz-adv-x="2388" />
<glyph unicode="&#x2004;" horiz-adv-x="796" />
<glyph unicode="&#x2005;" horiz-adv-x="597" />
<glyph unicode="&#x2006;" horiz-adv-x="398" />
<glyph unicode="&#x2007;" horiz-adv-x="398" />
<glyph unicode="&#x2008;" horiz-adv-x="298" />
<glyph unicode="&#x2009;" horiz-adv-x="477" />
<glyph unicode="&#x200a;" horiz-adv-x="132" />
<glyph unicode="&#x2010;" horiz-adv-x="770" d="M117 479v248h534v-248h-534z" />
<glyph unicode="&#x2011;" horiz-adv-x="770" d="M117 479v248h534v-248h-534z" />
<glyph unicode="&#x2012;" horiz-adv-x="770" d="M117 479v248h534v-248h-534z" />
<glyph unicode="&#x2013;" horiz-adv-x="970" d="M117 479v250h735v-250h-735z" />
<glyph unicode="&#x2014;" horiz-adv-x="1331" d="M117 479v250h1095v-250h-1095z" />
<glyph unicode="&#x2018;" horiz-adv-x="524" d="M41 1071l197 524h245l-123 -524h-319z" />
<glyph unicode="&#x2019;" horiz-adv-x="524" d="M41 1071l123 524h319l-194 -524h-248z" />
<glyph unicode="&#x201a;" horiz-adv-x="524" d="M41 -203l123 525h319l-194 -525h-248z" />
<glyph unicode="&#x201c;" horiz-adv-x="983" d="M41 1071l195 524h247l-123 -524h-319zM498 1071l196 524h248l-125 -524h-319z" />
<glyph unicode="&#x201d;" horiz-adv-x="983" d="M41 1071l125 524h319l-196 -524h-248zM500 1071l123 524h319l-194 -524h-248z" />
<glyph unicode="&#x201e;" horiz-adv-x="983" d="M41 -203l123 525h319l-194 -525h-248zM500 -203l125 525h317l-194 -525h-248z" />
<glyph unicode="&#x2026;" horiz-adv-x="1929" d="M129 0v336h358v-336h-358zM786 0v336h357v-336h-357zM1442 0v336h358v-336h-358z" />
<glyph unicode="&#x202f;" horiz-adv-x="477" />
<glyph unicode="&#x2039;" horiz-adv-x="870" d="M94 598l312 453h368l-303 -453l303 -455h-368z" />
<glyph unicode="&#x203a;" horiz-adv-x="870" d="M96 143l303 455l-303 453h367l313 -453l-313 -455h-367z" />
<glyph unicode="&#x205f;" horiz-adv-x="597" />
<glyph unicode="&#x20a1;" horiz-adv-x="1093" d="M104 518v133q0 369 246 492v268h193v-219q38 6 88 6q35 0 55 -2v215h193v-233q66 -8 137 -25v-244q-26 1 -89.5 6t-124 8t-110.5 3q-62 0 -102.5 -11t-71.5 -40.5t-45 -84t-14 -139.5v-133q0 -84 14 -139t44.5 -85.5t71.5 -42t103 -11.5q124 0 324 16v-242 q-39 -12 -137 -24v-232h-193v213q-23 -2 -59 -2q-47 0 -84 6v-217h-193v267q-246 120 -246 493z" />
<glyph unicode="&#x20a3;" horiz-adv-x="1306" d="M78 268v203h96v1051h1036v-281h-653v-332h629v-270h-629v-168h328v-203h-328v-268h-383v268h-96z" />
<glyph unicode="&#x20a4;" d="M117 504v158h153v139h-153v160h153v59q0 286 122 411t415 125q252 0 446 -43v-262q-251 23 -385 23q-63 0 -102.5 -8t-65.5 -23.5t-38.5 -48t-16.5 -71t-4 -103.5v-59h428v-160h-428v-139h428v-158h-428v-58q0 -101 -51 -174h663v-272h-1077v223q94 91 94 223v58h-153z " />
<glyph unicode="&#x20a7;" horiz-adv-x="1583" d="M76 920v231h121v371q295 18 499 18q116 0 206.5 -9t180 -34.5t151.5 -67.5t107 -112.5t60 -165.5h119v-231h-117q-14 -98 -58 -170.5t-104 -116t-145.5 -69.5t-170.5 -35t-192 -9q-105 0 -168 2v-522h-368v920h-121zM565 809h158q169 0 243 45t74 170v20q-1 65 -20 106.5 t-61.5 64t-97 30.5t-140.5 8q-27 0 -80 -1t-76 -1v-442z" />
<glyph unicode="&#x20ac;" horiz-adv-x="1404" d="M102 528v160h123v156h-123v160h129q17 156 69 264t141 170t202 89t266 27q90 0 206.5 -13.5t176.5 -29.5v-272q-3 0 -10 1t-10 1q-196 16 -326 16q-148 0 -224.5 -54t-98.5 -199h614l-41 -160h-584v-156h537l-41 -160h-487q22 -153 99 -209.5t228 -56.5q127 0 344 17 v-273q-62 -15 -178.5 -28t-204.5 -13q-153 0 -267 27.5t-203 91.5t-141 174.5t-67 269.5h-129z" />
<glyph unicode="&#x2122;" horiz-adv-x="1994" d="M80 1360v174h725v-174h-240v-674h-246v674h-239zM926 686v848h235l168 -256q31 -45 53 -96h2q24 50 54 96l168 256h237v-848h-239v387q0 73 6 144h-2q-42 -82 -62 -109l-102 -147h-123l-100 147q-30 44 -62 109h-2q6 -70 6 -144v-387h-237z" />
<glyph unicode="&#x25fc;" horiz-adv-x="1167" d="M0 0v1167h1167v-1167h-1167z" />
</font>
</defs>
</svg>
